(Classical) Edward Elgar - The Violin Music: Violin Concerto; Violin Sonata; Miniatures - Марат Бисенгалиев (Marat Bisengaliev), Benjamin Frith, West Kazakhstan Philharmonic Orchestra, Bundit Ungrangsee - 2011, FLAC (image+.cue) lossless


Статистика раздачи [Обновить пиров]
Размер:  827 MB   |    Зарегистрирован:  8 месяцев 18 дней   |    Скачан:  1 раз

Полного источника не было: 3 дня

 
   
 
 
 

[Цитировать]

Edward Elgar - The Violin Music: Violin Concerto; Violin Sonata; Miniatures - Марат Бисенгалиев (Marat Bisengaliev), Benjamin Frith, West Kazakhstan Philharmonic Orchestra, Bundit Ungrangsee
Жанр: Classical
Год издания диска: 2011
Издатель (лейбл): Naxos
Номер по каталогу: 8.572643-45
Дата записи: 1998,2000,2009,2010
Аудиокодек: FLAC
Тип рипа: image+.cue
Битрейт аудио: lossless
Продолжительность: 3:14:31
Источник: собственный рип
Наличие сканов в содержимом раздачи: да
Треклист:
Edward Elgar (1857-1934)

CD1

[1]-[3] Violin Concerto in B minor, Op. 61
[4]-[6] Serenade for Strings, Op. 20

CD2

[1] Romance, Op.1
[2] Mazurka
[3] Bizarrerie, Op.13 No.2
[4] Serenade
[5] Idylle, Op.4 No.1
[6] Chanson de matin, Op.15 No.2
[7] Chanson de nuit, Op.15 No.1
[8] La capricieuse, Op.17
[9] Gavotte
[10] Salut d'amour, Op.12
[11] Etude-Caprice
[12] May Song
[13] Virelai, Op.4 No.3
[14] In Hammersbach (Scenes from the Bavarian Highlands, No.2)
[15] Carissima
[16] Adieu
[17]-[21] Etudes caractéristiques pour violon seul, Op.24

CD3

[1] Elévation, Op. 11 (tr. F. Louis Schneider)
[2] Pastourelle, Op.4 No.2
[3] Bavarian Dance No.3 (arr. William Henley)
[4] Bavarian Dance No.1 (arr. William Henley)
[5] Sospiri, Op.70 (arr. Eirian Griffiths)
[6] Petite Reine – Berceuse (Victor Béraud, arr. Elgar)
[7] Polonaise in D minor (ed. Christopher Polyblank)
[8] Dreaming (arr. W.H. Reed)
[9] Mot d’amour, Op.13 No.1
[10] Valse on Themes by Elgar (completed by Christopher Polyblank)
[11] Reminiscences
[12] Interlude from 'The Crown of India', Op.66 (arr. Hugh Blair)
[13] Allegretto: Duet on a theme of GEDGE
[14]-[16] Sonata in E minor for violin and piano, Op.82
[17] Fugue for Violin and Oboe
Исполнители:
Marat Bisengaliev violin
Benjamin Frith piano
Camilla Bisengalieva oboe
West Kazakhstan Philharmonic Orchestra
Bundit Ungrangsee

Лог создания рипа: CD1

Exact Audio Copy V1.0 beta 3 from 29. August 2011
EAC extraction logfile from 29. January 2015, 0:07
Marat Bisengaliev, West Kazakhstan PO, Bundit Ungrangsee / Elgar - The Violin Music - CD1
Used drive : HL-DT-STDVDRAM GU70N Adapter: 0 ID: 0
Read mode : Secure
Utilize accurate stream : Yes
Defeat audio cache : Yes
Make use of C2 pointers : No
Read offset correction : 48
Overread into Lead-In and Lead-Out : No
Fill up missing offset samples with silence : Yes
Delete leading and trailing silent blocks : No
Null samples used in CRC calculations : Yes
Used interface : Native Win32 interface for Win NT & 2000
Used output format : User Defined Encoder
Selected bitrate : 128 kBit/s
Quality : High
Add ID3 tag : No
Command line compressor : C:\Program Files (x86)\Exact Audio Copy\Flac\flac.exe
Additional command line options : -V -8 -T "Date=%year%" -T "Genre=%genre%" %source%
TOC of the extracted CD
Track | Start | Length | Start sector | End sector
---------------------------------------------------------
1 | 0:00.00 | 17:04.40 | 0 | 76839
2 | 17:04.40 | 10:52.30 | 76840 | 125769
3 | 27:56.70 | 18:14.45 | 125770 | 207864
4 | 46:11.40 | 3:17.00 | 207865 | 222639
5 | 49:28.40 | 5:16.13 | 222640 | 246352
6 | 54:44.53 | 2:50.22 | 246353 | 259124
Range status and errors
Selected range
Filename C:\temp\Naxos_8.572643-45 - Elgar - The Violin Music\CD1\Elgar - The Violin Music - CD1.wav
Peak level 99.3 %
Extraction speed 5.1 X
Range quality 100.0 %
Test CRC D2CF1AF7
Copy CRC D2CF1AF7
Copy OK
No errors occurred
AccurateRip summary
Track 1 accurately ripped (confidence 1) [32DCA7E3] (AR v2)
Track 2 accurately ripped (confidence 1) [D7A34613] (AR v2)
Track 3 accurately ripped (confidence 1) [D224CCE8] (AR v2)
Track 4 accurately ripped (confidence 1) [24A82FFD] (AR v2)
Track 5 accurately ripped (confidence 1) [4E10385B] (AR v2)
Track 6 accurately ripped (confidence 1) [738217FD] (AR v2)
All tracks accurately ripped
End of status report
==== Log checksum 2DC81A947344CD21AF63D561A212921FFCDEAE8116B62FDE188C537805A0EBE9 ====

Лог создания рипа: CD2

Exact Audio Copy V1.0 beta 3 from 29. August 2011
EAC extraction logfile from 29. January 2015, 1:17
Marat Bisengaliev, Benjamin Frith / Elgar - The Violin Music - CD2
Used drive : HL-DT-STDVDRAM GU70N Adapter: 0 ID: 0
Read mode : Secure
Utilize accurate stream : Yes
Defeat audio cache : Yes
Make use of C2 pointers : No
Read offset correction : 48
Overread into Lead-In and Lead-Out : No
Fill up missing offset samples with silence : Yes
Delete leading and trailing silent blocks : No
Null samples used in CRC calculations : Yes
Used interface : Native Win32 interface for Win NT & 2000
Used output format : User Defined Encoder
Selected bitrate : 128 kBit/s
Quality : High
Add ID3 tag : No
Command line compressor : C:\Program Files (x86)\Exact Audio Copy\Flac\flac.exe
Additional command line options : -V -8 -T "Date=%year%" -T "Genre=%genre%" %source%
TOC of the extracted CD
Track | Start | Length | Start sector | End sector
---------------------------------------------------------
1 | 0:00.00 | 5:04.66 | 0 | 22865
2 | 5:04.66 | 2:51.13 | 22866 | 35703
3 | 7:56.04 | 2:33.70 | 35704 | 47248
4 | 10:29.74 | 2:30.13 | 47249 | 58511
5 | 13:00.12 | 3:24.58 | 58512 | 73869
6 | 16:24.70 | 3:06.31 | 73870 | 87850
7 | 19:31.26 | 4:11.28 | 87851 | 106703
8 | 23:42.54 | 4:21.26 | 106704 | 126304
9 | 28:04.05 | 5:11.13 | 126305 | 149642
10 | 33:15.18 | 2:53.46 | 149643 | 162663
11 | 36:08.64 | 3:53.67 | 162664 | 180205
12 | 40:02.56 | 3:27.45 | 180206 | 195775
13 | 43:30.26 | 2:51.70 | 195776 | 208670
14 | 46:22.21 | 2:51.64 | 208671 | 221559
15 | 49:14.10 | 3:07.07 | 221560 | 235591
16 | 52:21.17 | 2:52.49 | 235592 | 248540
17 | 55:13.66 | 2:31.12 | 248541 | 259877
18 | 57:45.03 | 1:39.06 | 259878 | 267308
19 | 59:24.09 | 1:22.17 | 267309 | 273475
20 | 60:46.26 | 3:02.29 | 273476 | 287154
21 | 63:48.55 | 2:52.20 | 287155 | 300074
Range status and errors
Selected range
Filename C:\temp\Naxos_8.572643-45 - Elgar - The Violin Music\CD2\Elgar - The Violin Music - CD2.wav
Peak level 89.7 %
Extraction speed 2.2 X
Range quality 100.0 %
Test CRC 60CE60C2
Copy CRC 60CE60C2
Copy OK
No errors occurred
AccurateRip summary
Track 1 accurately ripped (confidence 1) [7C221DD1] (AR v2)
Track 2 accurately ripped (confidence 1) [52FFE273] (AR v2)
Track 3 accurately ripped (confidence 1) [CB4AD17E] (AR v2)
Track 4 accurately ripped (confidence 1) [CA182A9D] (AR v2)
Track 5 accurately ripped (confidence 1) [08DDC31C] (AR v2)
Track 6 accurately ripped (confidence 1) [4EE9D9AA] (AR v2)
Track 7 accurately ripped (confidence 1) [37A68C14] (AR v2)
Track 8 accurately ripped (confidence 1) [FD554644] (AR v2)
Track 9 accurately ripped (confidence 1) [FD8F1255] (AR v2)
Track 10 accurately ripped (confidence 1) [5C0C2FDF] (AR v2)
Track 11 accurately ripped (confidence 1) [19F946E5] (AR v2)
Track 12 accurately ripped (confidence 1) [3F62327F] (AR v2)
Track 13 accurately ripped (confidence 1) [88543057] (AR v2)
Track 14 accurately ripped (confidence 1) [70D1310E] (AR v2)
Track 15 accurately ripped (confidence 1) [1A124D3A] (AR v2)
Track 16 accurately ripped (confidence 1) [E9BE7873] (AR v2)
Track 17 accurately ripped (confidence 1) [50B3B7CE] (AR v2)
Track 18 accurately ripped (confidence 1) [7FB6A95F] (AR v2)
Track 19 accurately ripped (confidence 1) [DCAFF9C3] (AR v2)
Track 20 accurately ripped (confidence 1) [706D42F9] (AR v2)
Track 21 accurately ripped (confidence 1) [830C8D1A] (AR v2)
All tracks accurately ripped
End of status report
==== Log checksum CB7527AC6FE3D6A464A8B4D7F96F238A5ED7E3522023F68A197FEAAAE53A17E0 ====

Лог создания рипа: CD3

Exact Audio Copy V1.0 beta 3 from 29. August 2011
EAC extraction logfile from 29. January 2015, 2:33
Marat Bisengaliev, Benjamin Frith / Elgar - The Violin Music - CD3
Used drive : HL-DT-STDVDRAM GU70N Adapter: 0 ID: 0
Read mode : Secure
Utilize accurate stream : Yes
Defeat audio cache : Yes
Make use of C2 pointers : No
Read offset correction : 48
Overread into Lead-In and Lead-Out : No
Fill up missing offset samples with silence : Yes
Delete leading and trailing silent blocks : No
Null samples used in CRC calculations : Yes
Used interface : Native Win32 interface for Win NT & 2000
Used output format : User Defined Encoder
Selected bitrate : 128 kBit/s
Quality : High
Add ID3 tag : No
Command line compressor : C:\Program Files (x86)\Exact Audio Copy\Flac\flac.exe
Additional command line options : -V -8 -T "Date=%year%" -T "Genre=%genre%" %source%
TOC of the extracted CD
Track | Start | Length | Start sector | End sector
---------------------------------------------------------
1 | 0:00.00 | 4:37.29 | 0 | 20803
2 | 4:37.29 | 2:52.41 | 20804 | 33744
3 | 7:29.70 | 4:44.50 | 33745 | 55094
4 | 12:14.45 | 4:10.57 | 55095 | 73901
5 | 16:25.27 | 4:03.47 | 73902 | 92173
6 | 20:28.74 | 3:26.50 | 92174 | 107673
7 | 23:55.49 | 4:40.72 | 107674 | 128745
8 | 28:36.46 | 2:34.38 | 128746 | 140333
9 | 31:11.09 | 2:00.72 | 140334 | 149405
10 | 33:12.06 | 2:30.66 | 149406 | 160721
11 | 35:42.72 | 2:08.26 | 160722 | 170347
12 | 37:51.23 | 2:15.73 | 170348 | 180545
13 | 40:07.21 | 4:01.05 | 180546 | 198625
14 | 44:08.26 | 8:10.11 | 198626 | 235386
15 | 52:18.37 | 7:44.65 | 235387 | 270251
16 | 60:03.27 | 8:30.65 | 270252 | 308566
17 | 68:34.17 | 1:34.58 | 308567 | 315674
Range status and errors
Selected range
Filename C:\temp\Naxos_8.572643-45 - Elgar - The Violin Music\CD3\Elgar - The Violin Music - CD3.wav
Peak level 94.6 %
Extraction speed 2.3 X
Range quality 100.0 %
Test CRC 12DB6E38
Copy CRC 12DB6E38
Copy OK
No errors occurred
AccurateRip summary
Track 1 accurately ripped (confidence 1) [E0ECD082] (AR v2)
Track 2 accurately ripped (confidence 1) [0DCF03CC] (AR v2)
Track 3 accurately ripped (confidence 1) [B9639789] (AR v2)
Track 4 accurately ripped (confidence 1) [835F83A4] (AR v2)
Track 5 accurately ripped (confidence 1) [6A6E8557] (AR v2)
Track 6 accurately ripped (confidence 1) [575B8B5E] (AR v2)
Track 7 accurately ripped (confidence 1) [48EDE8DD] (AR v2)
Track 8 accurately ripped (confidence 1) [E061A40B] (AR v2)
Track 9 accurately ripped (confidence 1) [43F9C430] (AR v2)
Track 10 accurately ripped (confidence 1) [A9BED0CC] (AR v2)
Track 11 accurately ripped (confidence 1) [165BE208] (AR v2)
Track 12 accurately ripped (confidence 1) [9668A5B0] (AR v2)
Track 13 accurately ripped (confidence 1) [F026D004] (AR v2)
Track 14 accurately ripped (confidence 1) [F43AC08C] (AR v2)
Track 15 accurately ripped (confidence 1) [E03784CC] (AR v2)
Track 16 accurately ripped (confidence 1) [D29C518E] (AR v2)
Track 17 accurately ripped (confidence 1) [E6A01AA1] (AR v2)
All tracks accurately ripped
End of status report
==== Log checksum A046FA772DD7F877EA02E801687C29F8360503649F2D3C9B68B38FF5A19E3913 ====
[teatrix.ru].t21602.torrent 
Торрент: Зарегистрирован [ 2016-03-20 12:41 ] · EAB445D4982CC431D873127BBD86F21F90724EA5

Скачать .torrent

Скачать

34 KB

Статус: проверено
Скачан: 1 раз
Размер: 827 MB
terms.php



Быстрый ответ

Имя:

      
Для отправки сообщений необходимо включить JavaScript
Показать сообщения:    

Текущее время: 08-Дек 07:09

Часовой пояс: UTC + 3


Вы можете начинать темы
Вы можете отвечать на сообщения
Вы не можете редактировать свои сообщения
Вы не можете удалять свои сообщения
Вы не можете голосовать в опросах
Вы не можете прикреплять файлы к сообщениям
Вы можете скачивать файлы