[TR24][OF] Ludwig van Beethoven: Cantata on the Death of Emperor Joseph II; Symphony No. 2 - San Francisco Symphony, Michael Tilson Thomas - 2013 (Classical)


Статистика раздачи [Обновить пиров]
Размер:  1.32 GB   |    Зарегистрирован:  8 месяцев 20 дней   |    Скачан:  0 раз

Полного источника не было: Никогда

 
   
 
 
 

[Цитировать]

Ludwig van Beethoven
Cantata on the Death of Emperor Joseph II
Symphony No. 2

San Francisco Symphony · Michael Tilson Thomas
-Год издания: 2013 | Жанр: Classical
Издатель: SFS Media | Продолжительность: 01:13:24
Наличие сканов: Sleeve, Digital Booklet- -San Francisco Symphony
Michael Tilson Thomas, conductor-Контейнер: FLAC (*.flac) | Тип рипа: tracks
Разрядность: 24bit / 96kHz | Количество каналов: 2.0-

Треклист
Ludwig van Beethoven (1770-1827)
Cantata on the Death of Emperor Joseph II, WoO 87
01.I. Todt, Todt! (7:44)
02. II. Ein Ungeheuer, sein Name Fanatismus (1:31)
03. III. Da kam Joseph (4:44)
04. IV. Da stiegen die Menschen an's Licht (5:33)
05. V. Er schläft (2:33)
06. VI. Hier schlummert seinen stillen Frieden (7:38)
07. VII. Todt, Todt! (8:53)
Symphony No. 2 in D Major, Op. 36
08. I. Adagio molto-Allegro con brio (13:00)
09. II. Larghetto (11:26)
10. III. Scherzo (Allegro) (3:42)
11. IV. Allegro molto (6:40)

О релизе


Beethoven's colossal Cantata on the Death of Emperor Joseph II for chorus, soloists, and orchestra and his playful, upbeat Second Symphony combine on this powerful new recording from Michael Tilson Thomas and the Grammy Award-winning San Francisco Symphony and Chorus. Rarely performed and recorded, this gripping and profoundly moving funeral cantata proved a revelation during the Symphony's May 2013 Beethoven Project. The recording features the Symphony, Chorus, and a glorious solo quartet - soprano Sally Matthews, mezzo-soprano Tamara Mumford, tenor Barry Banks, and bass-baritone Andrew Foster-Williams - all conducted by MTT. Presented as a premium audio hybrid SACD, this album is the latest addition to the San Francisco Symphony's ever growing collection of Beethoven recordings.
Pairing Ludwig van Beethoven's Cantata on the Death of Emperor Joseph II with the Symphony No. 2 in D major is an unsual programming choice, but Michael Tilson Thomas and the San Francisco Symphony play both pieces to perfection. Even if there isn't much to link them besides their early place in the composer's output, they make an exciting album by virtue of their contrasts. The cantata was composed in 1790, but it wasn't performed until 1884, so it has been treated as a minor work, at least in terms of the 20-year-old composer's immaturity and small influence. However, the Symphony No. 2, written in 1802, is one of the most significant examples of Beethoven's development , particularly of the heroic style, and its influence on Hector Berlioz and other Romantic composers was pronounced. In spite of the apparent imbalance between the works, Tilson Thomas gives them something like equal weight in his interpretations, treating the cantata with enough gravitas and expansiveness to elevate it to the symphony's obvious level of importance. Certainly, the cantata has worthwhile moments, most notably soprano Sally Matthews' solo with chorus, Da stiegen die Menschen an's Licht, which was adapted later for use in the opera Leonore (the early version of Fidelio). Yet even if the cantata is a curiosity at best, the thrilling performance of the Symphony No. 2 gives this hybrid SACD high value, and makes it one of the best releases of 2013. --AllMusic Review by Blair Sanderson
Personnel:
San Francisco Symphony
Michael Tilson Thomas, conductor
Sally Matthews, soprano
Barry Banks, tenor
Tamara Mumford, mezzo-soprano
Andrew Foster-Williams, bass-baritone
San Francisco Symphony Chorus
Ragnar Bohlin, director
Recorded live in PCM 96 kHz/24-bit audio May 2-3, 2013 at Davies Symphony Hall — a venue of the San Francisco War Memorial and Performing Arts Center, City and County of San Francisco.

ОтчётыДинамический диапазон

foobar2000 1.3.8 / Dynamic Range Meter 1.1.1
log date: 2015-07-01 01:48:48
--------------------------------------------------------------------------------
Analyzed: San Francisco Symphony, Michael Tilson Thomas / Beethoven: Cantata on the Death of Emperor Joseph II, Symphony No. 2
--------------------------------------------------------------------------------
DR Peak RMS Duration Track
--------------------------------------------------------------------------------
DR14 0.00 dB -20.32 dB 7:44 01-Cantata on the Death of Emperor Joseph II, WoO 87 - I. Todt, Todt!
DR11 -8.45 dB -23.48 dB 1:31 02-Cantata on the Death of Emperor Joseph II, WoO 87 - II. Ein Ungeheuer, sein Name Fanatismus
DR13 -8.81 dB -24.06 dB 4:44 03-Cantata on the Death of Emperor Joseph II, WoO 87 - III. Da kam Joseph
DR11 -6.79 dB -23.59 dB 5:33 04-Cantata on the Death of Emperor Joseph II, WoO 87 - IV. Da stiegen die Menschen an's Licht
DR12 -7.44 dB -26.19 dB 2:33 05-Cantata on the Death of Emperor Joseph II, WoO 87 - V. Er schläft
DR12 -5.77 dB -24.76 dB 7:38 06-Cantata on the Death of Emperor Joseph II, WoO 87 - VI. Hier schlummert seinen stillen Frieden
DR15 0.00 dB -21.01 dB 8:53 07-Cantata on the Death of Emperor Joseph II, WoO 87 - VII. Todt, Todt!
DR13 -2.71 dB -19.77 dB 13:00 08-Symphony No. 2 in D Major, Op. 36 - I. Adagio molto-Allegro con brio
DR14 -4.14 dB -24.13 dB 11:26 09-Symphony No. 2 in D Major, Op. 36 - II. Larghetto
DR13 -2.54 dB -22.42 dB 3:42 10-Symphony No. 2 in D Major, Op. 36 - III. Scherzo (Allegro)
DR12 -3.29 dB -20.21 dB 6:40 11-Symphony No. 2 in D Major, Op. 36 - IV. Allegro molto
--------------------------------------------------------------------------------
Number of tracks: 11
Official DR value: DR13
Samplerate: 96000 Hz
Channels: 2
Bits per sample: 24
Bitrate: 2644 kbps
Codec: FLAC
================================================================================

Скриншот спектра частот

Доп. информация

При скачивании, если необходимо, переименуйте папку, в которой будет находиться альбомБольшая просьба к скачавшим поддерживать раздачу! Помогайте другим, ведь вам тоже может понадобиться помощь!Не забываем говорить "Спасибо"!Комментарии приветствуются!
[teatrix.ru].t21603.torrent 
Торрент: Зарегистрирован [ 2016-03-20 12:41 ] · 56FCE5678B872FA62B8543F9984E04B1A53BE211

Скачать .torrent

Скачать

15 KB

Статус: проверено
Скачан: 0 раз
Размер: 1.32 GB
terms.php



Быстрый ответ

Имя:

      
Для отправки сообщений необходимо включить JavaScript
Показать сообщения:    

Текущее время: 09-Дек 22:26

Часовой пояс: UTC + 3


Вы можете начинать темы
Вы можете отвечать на сообщения
Вы не можете редактировать свои сообщения
Вы не можете удалять свои сообщения
Вы не можете голосовать в опросах
Вы не можете прикреплять файлы к сообщениям
Вы можете скачивать файлы