[TR24][OF] Johannes Brahms: Violin Concerto, String Sextet No. 2 - Isabelle Faust, Mahler Chamber Orchestra, Daniel Harding - 2011 (Classical)


Статистика раздачи [Обновить пиров]
Размер:  720 MB   |    Зарегистрирован:  8 месяцев 18 дней   |    Скачан:  1 раз

Полного источника не было: 1 месяц

 
   
 
 
 

[Цитировать]

Johannes Brahms
Violin Concerto · String Sextet No. 2
-Год издания: 2011 | Жанр: Classical
Издатель: Harmonia Mundi | Продолжительность: 01:14:47
Наличие сканов: Sleeve, Digital Booklet- -Isabelle Faust, Violin
Mahler Chamber Orchestra, Chamber ensemble
Daniel Harding, Conductor
Julia-Maria Kretz, violin | Stefan Fehlandt, Pauline Sachse, violas
Christoph Richter, Xenia Jankovic, violoncellos-Контейнер: FLAC (*.flac) | Тип рипа: tracks
Разрядность: 24bit / 44.1kHz | Количество каналов: 2.0
-Треклист
Johannes Brahms (1833-1897)
Violin Concerto in D major, Op. 77
Isabelle Faust · Mahler Chamber Orchestra · Daniel Harding01. I. Allegro non troppo (20:35)
02. II. Adagio (8:50)
03. III. Allegro giocoso, ma non troppo vivace - Poco più presto (7:38)
String Sextet No.2 in G, Op.36
Isabelle Faust · Julia-Maria Kretz · Stefan Fehlandt
Pauline Sachse · Christoph Richter · Xenia Jankovic

04. I. Allegro non troppo (14:38)
05. II. Scherzo: Allegro non troppo (6:42)
06. III. Poco adagio (8:19)
07. IV. Poco allegro (8:04)

О релизе


Isabelle Faust goes back to the roots of one of the most famous Romantic concertos, which is also one of the most difficult from a technical point of view: did Hans von Bülow not call it a ‘concerto against the violin’? Born of close collaboration between Brahms and the violinist Joseph Joachim, the work is a fine testimony to friendship – whereas the Sextet op.36 is directly linked to the love affair between the composer and the beautiful Agathe von Siebold.
Recorded: February 2010, Sociedad Filarmónica de Bilbao (Concerto) & September 2010, Teldex Studio Berlin (Sextet)

ОтчётыДинамический диапазон

foobar2000 1.3.8 / Dynamic Range Meter 1.1.1
log date: 2015-07-01 01:00:08
--------------------------------------------------------------------------------
Analyzed: Isabelle Faust, Julia-Maria Kretz, Stefan Fehlandt, Pauline Sachse, Christoph Richter, Xenia Jankovic / Brahms: Violin Concerto, String Sextet No. 2 (1-4)
Isabelle Faust, Mahler Chamber Orchestra, Daniel Harding / Brahms: Violin Concerto, String Sextet No. 2 (5-7)
--------------------------------------------------------------------------------
DR Peak RMS Duration Track
--------------------------------------------------------------------------------
DR15 -2.30 dB -21.54 dB 14:38 04-String Sextet No.2 in G, Op.36:I. Allegro non troppo
DR15 -2.30 dB -24.05 dB 6:42 05-String Sextet No.2 in G, Op.36:II. Scherzo: Allegro non troppo
DR17 -2.30 dB -25.42 dB 8:19 06-String Sextet No.2 in G, Op.36:III. Poco adagio
DR15 -2.88 dB -23.39 dB 8:04 07-String Sextet No.2 in G, Op.36:IV. Poco allegro
DR13 -0.10 dB -18.82 dB 20:35 01-Violin Concerto in D major, Op. 77:I. Allegro non troppo
DR15 -1.12 dB -24.50 dB 8:50 02-Violin Concerto in D major, Op. 77:II. Adagio
DR12 -0.10 dB -16.44 dB 7:38 03-Violin Concerto in D major, Op. 77:III. Allegro giocoso, ma non troppo vivace - Poco più presto
--------------------------------------------------------------------------------
Number of tracks: 7
Official DR value: DR14
Samplerate: 44100 Hz
Channels: 2
Bits per sample: 24
Bitrate: 1449 kbps
Codec: FLAC
================================================================================

Скриншот спектра частот

Доп. информация

При скачивании, если необходимо, переименуйте папку, в которой будет находиться альбомБольшая просьба к скачавшим поддерживать раздачу! Помогайте другим, ведь вам тоже может понадобиться помощь!Не забываем говорить "Спасибо"!Комментарии приветствуются!
Isabelle Faust Hi-Res
[teatrix.ru].t21605.torrent 
Торрент: Зарегистрирован [ 2016-03-20 12:41 ] · 96E963AA9A865DDAA15D4A16C64D6FC33863BD39

Скачать .torrent

Скачать

15 KB

Статус: проверено
Скачан: 1 раз
Размер: 720 MB
terms.php



Быстрый ответ

Имя:

      
Для отправки сообщений необходимо включить JavaScript
Показать сообщения:    

Текущее время: 08-Дек 01:17

Часовой пояс: UTC + 3


Вы можете начинать темы
Вы можете отвечать на сообщения
Вы не можете редактировать свои сообщения
Вы не можете удалять свои сообщения
Вы не можете голосовать в опросах
Вы не можете прикреплять файлы к сообщениям
Вы можете скачивать файлы