(Classical) Giacinto Scelsi · Chamber Music: Ko-Lho, Quattro Illustrazioni, Dithome, Hyxos, Xnoybis, To the master (Ensemble Avantgarde) · 2013, FLAC (tracks+.cue) lossless


 

[Цитировать]

Giacinto Scelsi
Chamber Music
Жанр: classical
Страна-производитель диска: ФРГ
Год издания диска: 2013
Издатель: Musikproduktion Dabringhaus und Grimm
Номер по каталогу: MDG 613 1802-2
Дата записи: 27–30 ноября 2011, 22 апреля и 23 сентября 2012
Аудиокодек: FLAC
Тип рипа: tracks+.cue
Битрейт аудио: lossless
Продолжительность: 01:18:37
Источник: скачано с what.cd
Сканов в содержимом раздачи нет
Исполнители: Ensemble Avantgarde

Треклист

Ko-Lho (1966)
01. I (4:23)
02. II (3:38)
Quattro Illustrazioni (1953)
03. I. Shésha-Shàyí Vishnu (3:53)
04. II. Varhara-Avatàra (3:10)
05. III. Rama-Avatàra (3:09)
06. IV. Krishna-Avatàra (3:35)
07. Dithome (1957) (17:08)
Hyxos (1955)
08. I. Tranquillo (4:16)
09. II. Con moto (3:04)
10. III. Tranquillo (4:38)
Xnoybis (1964)
11. I (4:37)
12. II (4:20)
13. III (4:56)
To the master (1974)
14. I. Animato (6:40)
15. II. Tranquillo (7:10)

Лог создания рипа

Exact Audio Copy V1.0 beta 3 from 29. August 2011
EAC extraction logfile from 23. September 2014, 0:27
Ensemble Avantgarde / Chamber Music
Used drive : HL-DT-STDVDRAM GSA-H10N Adapter: 0 ID: 0
Read mode : Secure
Utilize accurate stream : Yes
Defeat audio cache : Yes
Make use of C2 pointers : No
Read offset correction : 667
Overread into Lead-In and Lead-Out : No
Fill up missing offset samples with silence : Yes
Delete leading and trailing silent blocks : No
Null samples used in CRC calculations : Yes
Used interface : Native Win32 interface for Win NT & 2000
Gap handling : Appended to previous track
Used output format : User Defined Encoder
Selected bitrate : 768 kBit/s
Quality : High
Add ID3 tag : No
Command line compressor : C:\Program Files (x86)\Exact Audio Copy\Flac\flac.exe
Additional command line options : -8 -V -T "ARTIST=%artist%" -T "TITLE=%title%" -T "ALBUM=%albumtitle%" -T "DATE=%year%" -T "TRACKNUMBER=%tracknr%" -T "GENRE=%genre%" -T "PERFORMER=%albuminterpret%" -T "COMPOSER=%composer%" %haslyrics%--tag-from-file=LYRICS="%lyricsfile%"%haslyrics% -T "ALBUMARTIST=%albumartist%" -T "DISCNUMBER=%cdnumber%" -T "TOTALDISCS=%totalcds%" -T "TOTALTRACKS=%numtracks%" -T "COMMENT=%comment%" %source% -o %dest%
TOC of the extracted CD
Track | Start | Length | Start sector | End sector
---------------------------------------------------------
1 | 0:00.00 | 4:23.12 | 0 | 19736
2 | 4:23.12 | 3:37.53 | 19737 | 36064
3 | 8:00.65 | 3:53.36 | 36065 | 53575
4 | 11:54.26 | 3:09.68 | 53576 | 67818
5 | 15:04.19 | 3:09.04 | 67819 | 81997
6 | 18:13.23 | 3:34.52 | 81998 | 98099
7 | 21:48.00 | 17:08.18 | 98100 | 175217
8 | 38:56.18 | 4:15.50 | 175218 | 194392
9 | 43:11.68 | 3:04.21 | 194393 | 208213
10 | 46:16.14 | 4:37.59 | 208214 | 229047
11 | 50:53.73 | 4:37.18 | 229048 | 249840
12 | 55:31.16 | 4:20.07 | 249841 | 269347
13 | 59:51.23 | 4:55.65 | 269348 | 291537
14 | 64:47.13 | 6:40.05 | 291538 | 321542
15 | 71:27.18 | 7:09.56 | 321543 | 353773
Track 1
Filename E:\EAC\01 - Ko-Lho - I.wav
Pre-gap length 0:00:02.00
Peak level 25.7 %
Extraction speed 2.7 X
Track quality 100.0 %
Test CRC 101D4DC4
Copy CRC 101D4DC4
Track not present in AccurateRip database
Copy OK
Track 2
Filename E:\EAC\02 - Ko-Lho - II.wav
Peak level 22.7 %
Extraction speed 2.8 X
Track quality 100.0 %
Test CRC F1745F87
Copy CRC F1745F87
Track not present in AccurateRip database
Copy OK
Track 3
Filename E:\EAC\03 - Quattro Illustrazioni - I. Shesha - Shayi Vishnu.wav
Pre-gap length 0:00:17.74
Peak level 46.2 %
Extraction speed 3.1 X
Track quality 100.0 %
Test CRC E2ECEFD6
Copy CRC E2ECEFD6
Track not present in AccurateRip database
Copy OK
Track 4
Filename E:\EAC\04 - Quattro Illustrazioni - II. Varhara - Avatara.wav
Peak level 84.8 %
Extraction speed 2.7 X
Track quality 99.9 %
Test CRC B79DFB45
Copy CRC B79DFB45
Track not present in AccurateRip database
Copy OK
Track 5
Filename E:\EAC\05 - Quattro Illustrazioni - III. Rama - Avatara.wav
Peak level 25.5 %
Extraction speed 3.3 X
Track quality 100.0 %
Test CRC AAE8ABCC
Copy CRC AAE8ABCC
Track not present in AccurateRip database
Copy OK
Track 6
Filename E:\EAC\06 - Quattro Illustrazioni - IV. Krishna - Avatara.wav
Peak level 83.5 %
Extraction speed 3.5 X
Track quality 100.0 %
Test CRC 1A4CACE6
Copy CRC 1A4CACE6
Track not present in AccurateRip database
Copy OK
Track 7
Filename E:\EAC\07 - Dithome.wav
Pre-gap length 0:00:14.37
Peak level 58.1 %
Extraction speed 4.5 X
Track quality 100.0 %
Test CRC 384F64E1
Copy CRC 384F64E1
Track not present in AccurateRip database
Copy OK
Track 8
Filename E:\EAC\08 - Hyxos - I. Tranquillo.wav
Pre-gap length 0:00:18.84
Peak level 87.4 %
Extraction speed 4.5 X
Track quality 100.0 %
Test CRC 6D81F34C
Copy CRC 6D81F34C
Track not present in AccurateRip database
Copy OK
Track 9
Filename E:\EAC\09 - Hyxos - II. Con moto.wav
Peak level 42.7 %
Extraction speed 3.7 X
Track quality 99.9 %
Test CRC 3B633FE2
Copy CRC 3B633FE2
Track not present in AccurateRip database
Copy OK
Track 10
Filename E:\EAC\10 - Hyxos - III. Tranquillo.wav
Peak level 96.4 %
Extraction speed 4.7 X
Track quality 100.0 %
Test CRC 1AE8F924
Copy CRC 1AE8F924
Track not present in AccurateRip database
Copy OK
Track 11
Filename E:\EAC\11 - Xnoybis - I.wav
Pre-gap length 0:00:13.93
Peak level 11.9 %
Extraction speed 4.4 X
Track quality 99.9 %
Test CRC 035BED67
Copy CRC 035BED67
Track not present in AccurateRip database
Copy OK
Track 12
Filename E:\EAC\12 - Xnoybis - II.wav
Peak level 39.3 %
Extraction speed 5.1 X
Track quality 100.0 %
Test CRC B784FFD1
Copy CRC B784FFD1
Track not present in AccurateRip database
Copy OK
Track 13
Filename E:\EAC\13 - Xnoybis - III.wav
Peak level 28.6 %
Extraction speed 5.3 X
Track quality 100.0 %
Test CRC 37FAD3A0
Copy CRC 37FAD3A0
Track not present in AccurateRip database
Copy OK
Track 14
Filename E:\EAC\14 - To the Master - improvisation I. Animato.wav
Pre-gap length 0:00:13.10
Peak level 51.8 %
Extraction speed 5.2 X
Track quality 99.9 %
Test CRC 3D9C38B5
Copy CRC 3D9C38B5
Track not present in AccurateRip database
Copy OK
Track 15
Filename E:\EAC\15 - To the Master - improvisation II. Tranquillo.wav
Peak level 34.1 %
Extraction speed 5.9 X
Track quality 100.0 %
Test CRC 5D503D71
Copy CRC 5D503D71
Track not present in AccurateRip database
Copy OK
None of the tracks are present in the AccurateRip database
No errors occurred
End of status report
---- CUETools DB Plugin V2.1.4
[CTDB TOCID: ApBP4QwvHefOx77Cgn9IemiE.dw-] disk not present in database
Submit result: ApBP4QwvHefOx77Cgn9IemiE.dw- has been uploaded
==== Log checksum A669C75AB5C5C6755487E4C2DCBA5EB0FBBDA48D1816013F508FE699026136BD ====

Содержание индексной карты (.CUE)

REM DATE 2013
REM DISCID E9126C0F
REM COMMENT "ExactAudioCopy v1.0b3"
PERFORMER "Ensemble Avantgarde"
TITLE "Chamber Music"
FILE "01. Ko-Lho (1966) – I.wav" WAVE
TRACK 01 AUDIO
TITLE "Ko-Lho (1966) – I"
PERFORMER "Ensemble Avantgarde"
FLAGS DCP
INDEX 01 00:00:00
FILE "02. Ko-Lho (1966) – II.wav" WAVE
TRACK 02 AUDIO
TITLE "Ko-Lho (1966) – II"
PERFORMER "Ensemble Avantgarde"
FLAGS DCP
INDEX 01 00:00:00
TRACK 03 AUDIO
TITLE "Quattro Illustrazioni (1953) – I. Shésha-Shàyí Vishnu"
PERFORMER "Ensemble Avantgarde"
FLAGS DCP
INDEX 00 03:19:72
FILE "03. Quattro Illustrazioni (1953) – I. Shésha-Shàyí Vishnu.wav" WAVE
INDEX 01 00:00:00
FILE "04. Quattro Illustrazioni (1953) – II. Varhara-Avatàra.wav" WAVE
TRACK 04 AUDIO
TITLE "Quattro Illustrazioni (1953) – II. Varhara-Avatàra"
PERFORMER "Ensemble Avantgarde"
FLAGS DCP
INDEX 01 00:00:00
FILE "05. Quattro Illustrazioni (1953) – III. Rama-Avatàra.wav" WAVE
TRACK 05 AUDIO
TITLE "Quattro Illustrazioni (1953) – III. Rama-Avatàra"
PERFORMER "Ensemble Avantgarde"
FLAGS DCP
INDEX 01 00:00:00
FILE "06. Quattro Illustrazioni (1953) – IV. Krishna-Avatàra.wav" WAVE
TRACK 06 AUDIO
TITLE "Quattro Illustrazioni (1953) – IV. Krishna-Avatàra"
PERFORMER "Ensemble Avantgarde"
FLAGS DCP
INDEX 01 00:00:00
TRACK 07 AUDIO
TITLE "Dithome (1957)"
PERFORMER "Ensemble Avantgarde"
FLAGS DCP
INDEX 00 03:20:24
FILE "07. Dithome (1957).wav" WAVE
INDEX 01 00:00:00
TRACK 08 AUDIO
TITLE "Hyxos (1955) – I. Tranquillo"
PERFORMER "Ensemble Avantgarde"
FLAGS DCP
INDEX 00 16:49:30
FILE "08. Hyxos (1955) – I. Tranquillo.wav" WAVE
INDEX 01 00:00:00
FILE "09. Hyxos (1955) – II. Con moto.wav" WAVE
TRACK 09 AUDIO
TITLE "Hyxos (1955) – II. Con moto"
PERFORMER "Ensemble Avantgarde"
FLAGS DCP
INDEX 01 00:00:00
FILE "10. Hyxos (1955) – III. Tranquillo.wav" WAVE
TRACK 10 AUDIO
TITLE "Hyxos (1955) – III. Tranquillo"
PERFORMER "Ensemble Avantgarde"
FLAGS DCP
INDEX 01 00:00:00
TRACK 11 AUDIO
TITLE "Xnoybis (1964) – I"
PERFORMER "Ensemble Avantgarde"
FLAGS DCP
INDEX 00 04:23:64
FILE "11. Xnoybis (1964) – I.wav" WAVE
INDEX 01 00:00:00
FILE "12. Xnoybis (1964) – II.wav" WAVE
TRACK 12 AUDIO
TITLE "Xnoybis (1964) – II"
PERFORMER "Ensemble Avantgarde"
FLAGS DCP
INDEX 01 00:00:00
FILE "13. Xnoybis (1964) – III.wav" WAVE
TRACK 13 AUDIO
TITLE "Xnoybis (1964) – III"
PERFORMER "Ensemble Avantgarde"
FLAGS DCP
INDEX 01 00:00:00
TRACK 14 AUDIO
TITLE "To the master (1974) – I. Animato"
PERFORMER "Ensemble Avantgarde"
FLAGS DCP
INDEX 00 04:42:57
FILE "14. To the master (1974) – I. Animato.wav" WAVE
INDEX 01 00:00:00
FILE "15. To the master (1974) – II. Tranquillo.wav" WAVE
TRACK 15 AUDIO
TITLE "To the master (1974) – II. Tranquillo"
PERFORMER "Ensemble Avantgarde"
FLAGS DCP
INDEX 01 00:00:00



Показать сообщения:    

Текущее время: 06-Дек 13:14

Часовой пояс: UTC + 3


Вы не можете начинать темы
Вы не можете отвечать на сообщения
Вы не можете редактировать свои сообщения
Вы не можете удалять свои сообщения
Вы не можете голосовать в опросах
Вы не можете прикреплять файлы к сообщениям
Вы не можете скачивать файлы