(Opera) Mascagni - L'Amico Fritz (Pavarotti, Freni, Sardinero, Didier-Gambardella - Royal Opera House Covent Garden Chorus & Orchestra, Gavazzeni) - 2000, APE (image+.cue) lossless


 

[Цитировать]

Pietro Mascagni - L'Amico Fritz
Жанр: Opera
Страна-производитель диска: EU
Год издания диска: 2000
Издатель (лейбл): EMI
Номер по каталогу: 5 67376-2
Дата записи: 1968
Аудиокодек: APE
Тип рипа: image+.cue
Битрейт аудио: lossless
Продолжительность: 62'30+30'26
Источник: скачано с
Наличие сканов в содержимом раздачи: да
Треклист:

CD1

1. Preludietto
2. Act 1. Ma questa e una pazzia!
3. Act 1. Son pochi fiori
4. Act 1. Orsu, vieni tra noi, al fianco mio
5. Act 1. Chi mai sara?
6. Act 1. Laceri, miseri, tanti bambini
7. Act 1. Viva lo zingaro!
8. Act 1. Per voi, ghiottoni inutili
9. Act 1. Il suo sermone e splendido!
10. Act 1. Son gli orfanelli
11. Act 2. Ah! le belle ciliege!
12. Act 2. Bel cavalier, che vai per la foresta
13. Act 2. Suzel, buon di!
14. Act 2. Tutto tace
15. Act 2. Oh! chi e che giunge?
16. Act 2. Vediamo un po'!
17. Act 2. Faceasi vecchio Abramo
18. Act 2. Come va?
19. Act 2. Quale strano turbamento
20. Act 2. Fritz, noi partiamo. Addio!
21. Act 2. Che piu s'aspetta?

CD2

1. Intermezzo
2. Act 3. Tutto ho tentato
3. Act 3. Buon giorno, Fritz!
4. Act 3. O pallida, che un giorno mi guardasti
5. Act 3. O amore, o bella luce del core
6. Act 3. L'amico Fritz fantastica d'amore!
7. Act 3. Povero Fritz, l'amore in te si desta
8. Act 3. Non mi resta che il pianto ed il dolore
9. Act 3. Come s'e fatta pallida!
10. Act 3. Ah! ditela per me quella parola
11. Act 3. Amici, ho vinto, ho vinto!
12. Act 3. Tu sposi, Fritz?
Исполнители:
Pietro Mascagni - L'Amico Fritz
Suzel - Mirella Freni
Fritz Kobus - Luciano Pavarotti
Beppe - Laura Didier-Gambardella
David - Vincenzo Sardinero
Federico - Luigi Pontiggia
Hanezo - Benito di Bella
Caterina - Malvina Major
Royal Opera House Covent Garden Chorus
Royal Opera House Covent Garden Orchestra
Conductor Gianandrea Gavazzeni - 1968
Performed in Italian

Лог создания рипа

CD1

Exact Audio Copy V1.0 beta 6 from 9. April 2015
EAC extraction logfile from 23. June 2015, 21:28
Mascagni / L'Amico Fritz CD1
Used drive : TSSTcorpCDDVDW SE-208AB Adapter: 1 ID: 2
Read mode : Secure
Utilize accurate stream : Yes
Defeat audio cache : Yes
Make use of C2 pointers : No
Read offset correction : 6
Overread into Lead-In and Lead-Out : No
Fill up missing offset samples with silence : Yes
Delete leading and trailing silent blocks : No
Null samples used in CRC calculations : Yes
Used interface : Native Win32 interface for Win NT & 2000
Used output format : Monkey's Audio Lossless Encoder
Selected bitrate : High Lossless Compression
Quality : High
Add ID3 tag : Yes
Command line compressor : C:\Program Files (x86)\Exact Audio Copy\MAC\MAC.exe
TOC of the extracted CD
Track | Start | Length | Start sector | End sector
---------------------------------------------------------
1 | 0:00.00 | 3:31.35 | 0 | 15859
2 | 3:31.35 | 4:58.13 | 15860 | 38222
3 | 8:29.48 | 3:31.20 | 38223 | 54067
4 | 12:00.68 | 1:46.15 | 54068 | 62032
5 | 13:47.08 | 4:16.12 | 62033 | 81244
6 | 18:03.20 | 2:35.25 | 81245 | 92894
7 | 20:38.45 | 1:39.05 | 92895 | 100324
8 | 22:17.50 | 1:05.48 | 100325 | 105247
9 | 23:23.23 | 0:38.17 | 105248 | 108114
10 | 24:01.40 | 2:16.70 | 108115 | 118384
11 | 26:18.35 | 6:05.73 | 118385 | 145832
12 | 32:24.33 | 2:08.22 | 145833 | 155454
13 | 34:32.55 | 4:11.18 | 155455 | 174297
14 | 38:43.73 | 4:25.72 | 174298 | 194244
15 | 43:09.70 | 2:18.03 | 194245 | 204597
16 | 45:27.73 | 2:58.55 | 204598 | 218002
17 | 48:26.53 | 6:11.32 | 218003 | 245859
18 | 54:38.10 | 2:11.15 | 245860 | 255699
19 | 56:49.25 | 1:18.68 | 255700 | 261617
20 | 58:08.18 | 0:43.57 | 261618 | 264899
21 | 58:52.00 | 3:33.42 | 264900 | 280916
Range status and errors
Selected range
Filename D:\EAC\Mascagni - L'Amico Fritz CD1.wav
Peak level 91.9 %
Extraction speed 5.0 X
Range quality 100.0 %
Test CRC 2332083E
Copy CRC 2332083E
Copy OK
No errors occurred
AccurateRip summary
Track 1 not present in database
Track 2 not present in database
Track 3 not present in database
Track 4 not present in database
Track 5 not present in database
Track 6 not present in database
Track 7 not present in database
Track 8 not present in database
Track 9 not present in database
Track 10 not present in database
Track 11 not present in database
Track 12 not present in database
Track 13 not present in database
Track 14 not present in database
Track 15 not present in database
Track 16 not present in database
Track 17 not present in database
Track 18 not present in database
Track 19 not present in database
Track 20 not present in database
Track 21 not present in database
None of the tracks are present in the AccurateRip database
End of status report
---- CUETools DB Plugin V2.1.6
[CTDB TOCID: m9xofDhUcC9eseVHfFlH2W_TyWs-] disk not present in database
Submit result: m9xofDhUcC9eseVHfFlH2W_TyWs- has been uploaded
==== Log checksum 0B8414627C05A83B50D654B67DE87E8A0D7C6755DAB69E5A9383A01A76662BF9 ====

CD2

Exact Audio Copy V1.0 beta 6 from 9. April 2015
EAC extraction logfile from 23. June 2015, 22:03
Mascagni / L'Amico Fritz CD2
Used drive : TSSTcorpCDDVDW SE-208AB Adapter: 1 ID: 2
Read mode : Secure
Utilize accurate stream : Yes
Defeat audio cache : Yes
Make use of C2 pointers : No
Read offset correction : 6
Overread into Lead-In and Lead-Out : No
Fill up missing offset samples with silence : Yes
Delete leading and trailing silent blocks : No
Null samples used in CRC calculations : Yes
Used interface : Native Win32 interface for Win NT & 2000
Used output format : Monkey's Audio Lossless Encoder
Selected bitrate : High Lossless Compression
Quality : High
Add ID3 tag : Yes
Command line compressor : C:\Program Files (x86)\Exact Audio Copy\MAC\MAC.exe
TOC of the extracted CD
Track | Start | Length | Start sector | End sector
---------------------------------------------------------
1 | 0:00.00 | 3:56.48 | 0 | 17747
2 | 3:56.48 | 3:11.15 | 17748 | 32087
3 | 7:07.63 | 1:25.20 | 32088 | 38482
4 | 8:33.08 | 2:50.60 | 38483 | 51292
5 | 11:23.68 | 2:29.40 | 51293 | 62507
6 | 13:53.33 | 1:42.07 | 62508 | 70164
7 | 15:35.40 | 1:20.15 | 70165 | 76179
8 | 16:55.55 | 2:45.45 | 76180 | 88599
9 | 19:41.25 | 1:37.65 | 88600 | 95939
10 | 21:19.15 | 6:06.20 | 95940 | 123409
11 | 27:25.35 | 0:44.02 | 123410 | 126711
12 | 28:09.37 | 2:11.08 | 126712 | 136544
Range status and errors
Selected range
Filename D:\EAC\Mascagni - L'Amico Fritz CD2.wav
Peak level 89.1 %
Extraction speed 4.2 X
Range quality 100.0 %
Test CRC 678B788E
Copy CRC 678B788E
Copy OK
No errors occurred
AccurateRip summary
Track 1 not present in database
Track 2 not present in database
Track 3 not present in database
Track 4 not present in database
Track 5 not present in database
Track 6 not present in database
Track 7 not present in database
Track 8 not present in database
Track 9 not present in database
Track 10 not present in database
Track 11 not present in database
Track 12 not present in database
None of the tracks are present in the AccurateRip database
End of status report
---- CUETools DB Plugin V2.1.6
[CTDB TOCID: zGMnh8gv8HVts5RLtUPcZfOhfKk-] disk not present in database
Submit result: zGMnh8gv8HVts5RLtUPcZfOhfKk- has been uploaded
==== Log checksum E68A3E59BC9D38536B0494EE2041B3AA59A85A1196029D07D2207BA0112ABA0D ====

Содержание индексной карты (.CUE)

CD1

REM GENRE Opera
REM DATE 1969
REM DISCID 110EA115
REM COMMENT "ExactAudioCopy v1.0b6"
PERFORMER "Mascagni"
TITLE "L'Amico Fritz CD1"
FILE "Mascagni - L'Amico Fritz CD1.ape" WAVE
TRACK 01 AUDIO
TITLE "Preludietto Akt1"
PERFORMER "Pavarotti, Freni - Royal Opera House Covent Garden Orchestra, Gavazzeni"
INDEX 01 00:00:00
TRACK 02 AUDIO
TITLE "Ma questa è una pazzia! Akt1"
PERFORMER "Pavarotti, Freni - Royal Opera House Covent Garden Orchestra, Gavazzeni"
INDEX 01 03:31:35
TRACK 03 AUDIO
TITLE "Son pochi fiori Akt1"
PERFORMER "Pavarotti, Freni - Royal Opera House Covent Garden Orchestra, Gavazzeni"
INDEX 01 08:29:48
TRACK 04 AUDIO
TITLE "Orsù, vieni tra noi, al fianco mio Akt1"
PERFORMER "Pavarotti, Freni - Royal Opera House Covent Garden Orchestra, Gavazzeni"
INDEX 01 12:00:68
TRACK 05 AUDIO
TITLE "Chi ma sarà? Akt1"
PERFORMER "Pavarotti, Freni - Royal Opera House Covent Garden Orchestra, Gavazzeni"
INDEX 01 13:47:08
TRACK 06 AUDIO
TITLE "Laceri, miseri, tanti bambini Akt1"
PERFORMER "Pavarotti, Freni - Royal Opera House Covent Garden Orchestra, Gavazzeni"
INDEX 01 18:03:20
TRACK 07 AUDIO
TITLE "Viva lo zingaro Akt1"
PERFORMER "Pavarotti, Freni - Royal Opera House Covent Garden Orchestra, Gavazzeni"
INDEX 01 20:38:45
TRACK 08 AUDIO
TITLE "Per voi, ghiottoni inutli Akt1"
PERFORMER "Pavarotti, Freni - Royal Opera House Covent Garden Orchestra, Gavazzeni"
INDEX 01 22:17:50
TRACK 09 AUDIO
TITLE "Il suo sermone è splendido! Akt1"
PERFORMER "Pavarotti, Freni - Royal Opera House Covent Garden Orchestra, Gavazzeni"
INDEX 01 23:23:23
TRACK 10 AUDIO
TITLE "Son gli orfanelli Akt1"
PERFORMER "Pavarotti, Freni - Royal Opera House Covent Garden Orchestra, Gavazzeni"
INDEX 01 24:01:40
TRACK 11 AUDIO
TITLE "Ah, le belle ciliege! Akt2"
PERFORMER "Pavarotti, Freni - Royal Opera House Covent Garden Orchestra, Gavazzeni"
INDEX 01 26:18:35
TRACK 12 AUDIO
TITLE "Bel cavalier, che vai per la foresta.. Akt2"
PERFORMER "Pavarotti, Freni - Royal Opera House Covent Garden Orchestra, Gavazzeni"
INDEX 01 32:24:33
TRACK 13 AUDIO
TITLE "Suzel, buon di Akt2"
PERFORMER "Pavarotti, Freni - Royal Opera House Covent Garden Orchestra, Gavazzeni"
INDEX 01 34:32:55
TRACK 14 AUDIO
TITLE "Tutto tace Akt2"
PERFORMER "Pavarotti, Freni - Royal Opera House Covent Garden Orchestra, Gavazzeni"
INDEX 01 38:43:73
TRACK 15 AUDIO
TITLE "Oh! Chi è che giunge? Akt2"
PERFORMER "Pavarotti, Freni - Royal Opera House Covent Garden Orchestra, Gavazzeni"
INDEX 01 43:09:70
TRACK 16 AUDIO
TITLE "Vediamo un po'! Akt2"
PERFORMER "Pavarotti, Freni - Royal Opera House Covent Garden Orchestra, Gavazzeni"
INDEX 01 45:27:73
TRACK 17 AUDIO
TITLE "Faceasi vecchio Abramo Akt2"
PERFORMER "Pavarotti, Freni - Royal Opera House Covent Garden Orchestra, Gavazzeni"
INDEX 01 48:26:53
TRACK 18 AUDIO
TITLE "Come va? Akt2"
PERFORMER "Pavarotti, Freni - Royal Opera House Covent Garden Orchestra, Gavazzeni"
INDEX 01 54:38:10
TRACK 19 AUDIO
TITLE "Quale strano turbamento Akt2"
PERFORMER "Pavarotti, Freni - Royal Opera House Covent Garden Orchestra, Gavazzeni"
INDEX 01 56:49:25
TRACK 20 AUDIO
TITLE "Fritz, noi partiamo...addio! Akt2"
PERFORMER "Pavarotti, Freni - Royal Opera House Covent Garden Orchestra, Gavazzeni"
INDEX 01 58:08:18
TRACK 21 AUDIO
TITLE "Che più s'aspetta? Akt2"
PERFORMER "Pavarotti, Freni - Royal Opera House Covent Garden Orchestra, Gavazzeni"
INDEX 01 58:52:00

CD2

REM GENRE Opera
REM DATE 1969
REM DISCID A4071C0C
REM COMMENT "ExactAudioCopy v1.0b6"
PERFORMER "Mascagni"
TITLE "L'Amico Fritz CD2"
FILE "Mascagni - L'Amico Fritz CD2.ape" WAVE
TRACK 01 AUDIO
TITLE "Intermezzo Akt 3"
PERFORMER "Pavarotti, Freni - Royal Opera House Covent Garden Orchestra, Gavazzeni"
INDEX 01 00:00:00
TRACK 02 AUDIO
TITLE "Tutto ho tentato"
PERFORMER "Pavarotti, Freni - Royal Opera House Covent Garden Orchestra, Gavazzeni"
INDEX 01 03:56:48
TRACK 03 AUDIO
TITLE "Buon giorno, Fritz!"
PERFORMER "Pavarotti, Freni - Royal Opera House Covent Garden Orchestra, Gavazzeni"
INDEX 01 07:07:63
TRACK 04 AUDIO
TITLE "O pallida, che un giorno mi guardasti"
PERFORMER "Pavarotti, Freni - Royal Opera House Covent Garden Orchestra, Gavazzeni"
INDEX 01 08:33:08
TRACK 05 AUDIO
TITLE "O amore, o bella luce del core"
PERFORMER "Pavarotti, Freni - Royal Opera House Covent Garden Orchestra, Gavazzeni"
INDEX 01 11:23:68
TRACK 06 AUDIO
TITLE "L'amico Fritz fantastica d'amore!"
PERFORMER "Pavarotti, Freni - Royal Opera House Covent Garden Orchestra, Gavazzeni"
INDEX 01 13:53:33
TRACK 07 AUDIO
TITLE "Povero Fritz, l'amore in te si desta"
PERFORMER "Pavarotti, Freni - Royal Opera House Covent Garden Orchestra, Gavazzeni"
INDEX 01 15:35:40
TRACK 08 AUDIO
TITLE "Non mi resta che il pianto ed il dolore"
PERFORMER "Pavarotti, Freni - Royal Opera House Covent Garden Orchestra, Gavazzeni"
INDEX 01 16:55:55
TRACK 09 AUDIO
TITLE "Come s'e fatta pallida!"
PERFORMER "Pavarotti, Freni - Royal Opera House Covent Garden Orchestra, Gavazzeni"
INDEX 01 19:41:25
TRACK 10 AUDIO
TITLE "Ah! Ditela per me quella parola"
PERFORMER "Pavarotti, Freni - Royal Opera House Covent Garden Orchestra, Gavazzeni"
INDEX 01 21:19:15
TRACK 11 AUDIO
TITLE "Amici, ho vinto, ho vinto!"
PERFORMER "Pavarotti, Freni - Royal Opera House Covent Garden Orchestra, Gavazzeni"
INDEX 01 27:25:35
TRACK 12 AUDIO
TITLE "Tu sposi, Fritz?"
PERFORMER "Pavarotti, Freni - Royal Opera House Covent Garden Orchestra, Gavazzeni"
INDEX 01 28:09:37

Лог проверки качества

CD1

[CUETools log; Date: 23-6-2015 21:38:31; Version: 2.1.4]
[CTDB TOCID: m9xofDhUcC9eseVHfFlH2W_TyWs-] found.
Track | CTDB Status
1 | (1/1) Accurately ripped
2 | (1/1) Accurately ripped
3 | (1/1) Accurately ripped
4 | (1/1) Accurately ripped
5 | (1/1) Accurately ripped
6 | (1/1) Accurately ripped
7 | (1/1) Accurately ripped
8 | (1/1) Accurately ripped
9 | (1/1) Accurately ripped
10 | (1/1) Accurately ripped
11 | (1/1) Accurately ripped
12 | (1/1) Accurately ripped
13 | (1/1) Accurately ripped
14 | (1/1) Accurately ripped
15 | (1/1) Accurately ripped
16 | (1/1) Accurately ripped
17 | (1/1) Accurately ripped
18 | (1/1) Accurately ripped
19 | (1/1) Accurately ripped
20 | (1/1) Accurately ripped
21 | (1/1) Accurately ripped
[AccurateRip ID: 00307d60-02e11caa-110ea115] disk not present in database.
Track Peak [ CRC32 ] [W/O NULL] [ LOG ]
-- 91,9 [2332083E] [7CD32DCA] CRC32
01 54,6 [57E3F3B5] [65977996]
02 62,7 [1BD4BBA3] [A06E93A6]
03 54,7 [5DC89444] [A1CDDD98]
04 53,6 [B2299240] [AA0276D1]
05 51,7 [DCD0E175] [77D4FACE]
06 62,6 [8C8428ED] [30A3D8FC]
07 65,9 [AEC11FAF] [FF0B914C]
08 52,2 [2D1CA311] [C4BB7604]
09 53,5 [107F0A98] [5BDCAB41]
10 91,9 [6AE74B0C] [AE6C704F]
11 48,4 [B50E2F4B] [176AD636]
12 45,8 [4A7485B8] [1E8074C1]
13 55,9 [E4BF9AFC] [76772DB0]
14 58,4 [FEF16AAA] [4937D86E]
15 70,6 [5D546DCA] [87ACE462]
16 41,4 [1A106C3A] [69908319]
17 91,2 [3A4C7129] [3AB2A555]
18 77,1 [95A84BDA] [C2E0BB33]
19 56,1 [BAEE5B63] [0CD09F12]
20 49,7 [E345F145] [99ECC638]
21 49,6 [FA5B3E53] [CE83F626]

CD2

[CUETools log; Date: 23-6-2015 22:04:47; Version: 2.1.4]
[CTDB TOCID: zGMnh8gv8HVts5RLtUPcZfOhfKk-] found.
Track | CTDB Status
1 | (1/1) Accurately ripped
2 | (1/1) Accurately ripped
3 | (1/1) Accurately ripped
4 | (1/1) Accurately ripped
5 | (1/1) Accurately ripped
6 | (1/1) Accurately ripped
7 | (1/1) Accurately ripped
8 | (1/1) Accurately ripped
9 | (1/1) Accurately ripped
10 | (1/1) Accurately ripped
11 | (1/1) Accurately ripped
12 | (1/1) Accurately ripped
[AccurateRip ID: 000e0878-008098dc-a4071c0c] disk not present in database.
Track Peak [ CRC32 ] [W/O NULL] [ LOG ]
-- 89,1 [678B788E] [E7736C30] CRC32
01 77,1 [5F15E010] [3869093E]
02 59,2 [78A1CF43] [BC369CC0]
03 44,4 [68621FA1] [E8C1D95E]
04 60,7 [266CC474] [59350D28]
05 82,5 [7DEA94A5] [A9E93D15]
06 70,3 [FA90F349] [2B24968F]
07 42,7 [DE795A4B] [41223A38]
08 58,8 [D0EAE29B] [BA142377]
09 44,4 [C2F267FD] [C9EE8A7B]
10 89,1 [116A1311] [3FFFC652]
11 50,3 [556F89A7] [4C8D1684]
12 86,6 [3AF4E9E5] [96F0E591]



Показать сообщения:    

Текущее время: 11-Дек 01:29

Часовой пояс: UTC + 3


Вы не можете начинать темы
Вы не можете отвечать на сообщения
Вы не можете редактировать свои сообщения
Вы не можете удалять свои сообщения
Вы не можете голосовать в опросах
Вы не можете прикреплять файлы к сообщениям
Вы не можете скачивать файлы