(Orchestral) Gustav Mahler - Symphonie Nr.5 (BBC Symphony Orchestra - Pierre Boulez) - 1991, FLAC (image+.cue) lossless


 

[Цитировать]

Gustav Mahler
Symphonie n.5 in Do diesis min.
Pierre B O U L E Z
--- Жанр: Orchestral
Страна-производитель диска: Italy
Год издания диска: 1991
Издатель (лейбл): Arkadia
Дата записи: 1970
Аудиокодек: FLAC
Тип рипа: image+.cue
Битрейт аудио: lossless
Продолжительность: 64'17''
Источник: собственный рип
Наличие сканов в содержимом раздачи: да
Треклист:
G.Mahler - Symphonie Nr.5:
[01] I. Trauermarsch. In gemessemen Schritt. Streng. Wie ein Kondukt
[02] II. Stürmisch bewegt. Mit grösster Vehemnz
[03] III. Scherzo. Kräftig, nicht zu schnell
[04] IV. Adagietto. Sehr langsam
[05] V. Rondo-Finale: Allegro giocoso. Frisch
Исполнители:
BBC Symphony Orchestra - Pierre Boulez-

Лог создания рипа

Exact Audio Copy V1.0 beta 3 from 29. August 2011
EAC extraction logfile from 8. April 2014, 21:59
BBC Symphony Orchestra - Pierre Boulez / Mahler - Symphonie Nr.5
Used drive : COMPAQ CD-ROM LTN403 Adapter: 0 ID: 0
Read mode : Secure
Utilize accurate stream : Yes
Defeat audio cache : Yes
Make use of C2 pointers : No
Read offset correction : -1164
Overread into Lead-In and Lead-Out : No
Fill up missing offset samples with silence : Yes
Delete leading and trailing silent blocks : No
Null samples used in CRC calculations : Yes
Used interface : Native Win32 interface for Win NT & 2000
Used output format : User Defined Encoder
Selected bitrate : 1024 kBit/s
Quality : High
Add ID3 tag : No
Command line compressor : C:\Program Files\FLAC\flac.exe
Additional command line options : -T"COMMENT=rip by el coronel" -8 -V %source%
TOC of the extracted CD
Track | Start | Length | Start sector | End sector
---------------------------------------------------------
1 | 0:00.33 | 12:15.12 | 33 | 55169
2 | 12:15.45 | 13:45.63 | 55170 | 117107
3 | 26:01.33 | 15:33.00 | 117108 | 187082
4 | 41:34.33 | 8:19.45 | 187083 | 224552
5 | 49:54.03 | 14:23.30 | 224553 | 289307
Range status and errors
Selected range
Filename D:\Mahler - Symphonie Nr.5 (BBC, Boulez).wav
Peak level 99.8 %
Extraction speed 3.0 X
Range quality 100.0 %
Test CRC E87E5E41
Copy CRC E87E5E41
Copy OK
No errors occurred
End of status report
==== Log checksum FCA3A3CD1073419D2363DF8E5A83853EE14BAF80891FFAB5F1B1C85D58DDF853 ====

Содержание индексной карты (.CUE)

REM GENRE Classical
REM DATE 1994
REM DISCID 510F1105
REM COMMENT "ExactAudioCopy v1.0b3"
PERFORMER "BBC Symphony Orchestra - Pierre Boulez"
TITLE "Mahler - Symphonie Nr.5"
FILE "Mahler - Symphonie Nr.5 (BBC, Boulez).flac" WAVE
TRACK 01 AUDIO
TITLE "I. Trauermarsch. In gemessemen Schritt. Streng. Wie ein Kondukt"
PERFORMER "BBC Symphony Orchestra - Pierre Boulez"
INDEX 00 00:00:00
INDEX 01 00:00:33
TRACK 02 AUDIO
TITLE "II. Sturmich bewegt. Mit grosser Vehemenz"
PERFORMER "BBC Symphony Orchestra - Pierre Boulez"
INDEX 00 12:15:44
INDEX 01 12:15:45
TRACK 03 AUDIO
TITLE "III. Scherzo: Kraftig, nicht zu schnell"
PERFORMER "BBC Symphony Orchestra - Pierre Boulez"
INDEX 00 26:01:29
INDEX 01 26:01:33
TRACK 04 AUDIO
TITLE "IV. Adagietto. Sehr langsam"
PERFORMER "BBC Symphony Orchestra - Pierre Boulez"
INDEX 00 41:34:32
INDEX 01 41:34:33
TRACK 05 AUDIO
TITLE "V. Rondo-Finale: Allegro giocoso. Frisch"
PERFORMER "BBC Symphony Orchestra - Pierre Boulez"
INDEX 00 49:53:74
INDEX 01 49:54:03
-Доп. информация: Пьер Булез считался выдающимся малеровским дирижёром задолго до начала выхода его знаменитого цикла на Deutsche Grammophon. Разные лейблы в начале 90-ых (в основном Arkadia (Hunt) и Artists) выпускали записи симфоний Малера с Булезом и Оркестром БиБиСи, сделанные в 60-ых и 70-ых годах прошлого века.



Показать сообщения:    

Текущее время: 08-Дек 19:07

Часовой пояс: UTC + 3


Вы не можете начинать темы
Вы не можете отвечать на сообщения
Вы не можете редактировать свои сообщения
Вы не можете удалять свои сообщения
Вы не можете голосовать в опросах
Вы не можете прикреплять файлы к сообщениям
Вы не можете скачивать файлы