(Classical) Андрес Исаси – Все струнные квартеты [3 CDs] / Andres Isasi – Complete string quartets (Isasi Quartet: Bohigas, Bougamont, Roussin, Martinez, Dobers, Weinmann, Chiffoleau, Valente; Zabaleta) - 2012-2015, FLAC (tracks+.cue) lossless


 

[Цитировать]

Андрес Исаси – Все струнные квартеты и скрипичная соната [3 CDs] / Andrés Isasi – Complete string quartets & violin sonata (Isasi Quartet)
Жанр: Classical
Страна-производитель диска: Германия
Год издания диска: 2012, 2013, 2015
Издатель (лейбл): Naxos
Номер по каталогу: 8.572463, 8.572464, 8.572462
Дата записи:
30 ноября — 3 декабря 2009 г., Аркангский замок (квартеты III);
14 — 17 июня 2010 г., Аркангский замок (квартеты I);
18 — 22 декабря 2011 г., Аркангский замок (квартеты II);
21 — 22 сентября 2013 г., Бильбао (соната).
Аудиокодек: FLAC
Тип рипа: tracks+.cue
Битрейт аудио: lossless
Продолжительность: 00:55:00 + 01:03:49 + 01:12:10
Источник: mostlymodernclassicalmusic
Наличие сканов в содержимом раздачи: да
Треклист:-Андрес Исаси-и-Линарес, маркиз де Барамбьо (1890 — 1940).
Полное собрание сохранившихся сочинений для струнного квартета и скрипичная соната.-Cd 1.
Струнный квартет № 0 e-moll, op. 83 (1908).
01. I. Allegro moderato ed espressivo [08:51].
02. II. Molto lento [04:21].
03. III. Колыбельная. Andante molto tranquillo [03:51].
04. IV. Final. Un poco andante. — Allegro [07:03].
Струнный квартет № 2 a-moll, op. 27 (1920).
05. I. Allegro agitato [10:16].
06. II. Adagio [06:36].
07. III. Intermezzo. Allegretto giocoso. — Fuga. Allegretto serioso [05:53].
08. IV. Final. Allegro. — Allegro moderato [07:37].-Cd 2.
Струнный квартет № 4 D-dur, op. 31 (1921).
01. I. Allegro grazioso [09:18].
02. II. Романсъ. Adagio místico [07:24].
03. III. Scherzo. Brioso [06:08].
04. IV. Rondó. Allegro a la marcha [06:40].
Струнный квартет № 3 e-moll, op. 30 (1921, неоконченный?).
05. I. [Без указания темпа? / Andante?] [10:22].
06. II. Scherzo [05:36].
07. III. Adagio molto espressivo [05:53].
Струнный квартет № 7 (неоконченный?; фрагменты I и II частей; возможно, ария).
08. III. Ария [D-dur]. Andante [05:14].
09. Скерцетто (Scherzetto) f-moll (1930-е?) [02:31].
«Апрельский всадник», пастораль (Pastorela: Jinete de Abril), миниатюрная драма для картонного театра, op. 51 (не окончена).
10. № 1. Прелюдия A-dur для струнного квартета (1934) [03:44].-Cd 3.
Струнный квартет № 1 G-dur, op. 11 (1910 – 1911, 2-я ред. с новой III частью 1914).
01. I. Allegro moderatissimo [07:04].
02. II. Andante e romántico [07:28].
03. III. Intermezzo. Allegretto e mosso [03:18].
04. IV. Final. Allegro [06:08].
Струнный квартет № 5 c-moll, op. 32 (1921).
05. I. Allegro non troppo [08:10].
06. II. Adagio [06:20].
07. III. Allegretto vivace [03:05].
08. IV. Final. Allegro [07:10].
Скрипичная соната f-moll, op. 25 (1917).
09. I. Un poco recitativo. — Allegro [11:15].
10. II. Романс. Adagio [05:43].
11. III. Allegro molto [06:16].-Только квартет № 0 был издан. Все остальные сочинения исполняются по рукописям в редакции альтиста Карстена Доберса.-Исполнители:
Isasi Quartet:
Anna Bohigas (скрипка, диски I — III, соната),
Sidonie Bougamont (скрипка, диск I),
Annick Roussin (скрипка, диск II),
Enekoitz Martinez (скрипка, диск III),
Karsten Dobers (альт),
Matthias Weinmann (виолончель, диск I),
Yvan Chiffoleau (виолончель, диск II),
Teresa Valente (виолончель, диск III).
Marta Zabaleta (фортепиано).-

Логи создания рипаCD 1.

Exact Audio Copy V1.0 beta 3 from 29. August 2011
EAC extraction logfile from 21. June 2015, 23:37
Isasi, Andres / String Quartets Vol. 1
Used drive : TSSTcorpCDDVDW SH-S223C Adapter: 0 ID: 1
Read mode : Secure
Utilize accurate stream : Yes
Defeat audio cache : Yes
Make use of C2 pointers : No
Read offset correction : 697
Overread into Lead-In and Lead-Out : No
Fill up missing offset samples with silence : Yes
Delete leading and trailing silent blocks : No
Null samples used in CRC calculations : Yes
Used interface : Native Win32 interface for Win NT & 2000
Gap handling : Appended to previous track
Used output format : User Defined Encoder
Selected bitrate : 1024 kBit/s
Quality : High
Add ID3 tag : No
Command line compressor : C:\Program Files (x86)\Exact Audio Copy\FLAC\FLAC.EXE
Additional command line options : -V -0 -T "Comment=Ripped by Tapaz9/Johnston" -T "artist=%artist%" -T "title=%title%" -T "album=%albumtitle%" -T "date=%year%" -T "tracknumber=%tracknr%" -T "genre=%genre%" %source%
TOC of the extracted CD
Track | Start | Length | Start sector | End sector
---------------------------------------------------------
1 | 0:00.00 | 8:52.56 | 0 | 39955
2 | 8:52.56 | 4:22.50 | 39956 | 59655
3 | 13:15.31 | 3:54.04 | 59656 | 77209
4 | 17:09.35 | 7:17.43 | 77210 | 110027
5 | 24:27.03 | 10:19.13 | 110028 | 156465
6 | 34:46.16 | 6:38.48 | 156466 | 186363
7 | 41:24.64 | 5:56.00 | 186364 | 213063
8 | 47:20.64 | 7:37.04 | 213064 | 247342
Track 1
Filename F:\Musique\Isasi, Andres\Isasi_StringQuartetVol1\01 - String Quartet No. 0- I. Allegro moderato ed espressivo.wav
Pre-gap length 0:00:02.00
Peak level 69.6 %
Extraction speed 8.8 X
Track quality 100.0 %
Copy CRC CA59E289
Copy OK
Track 2
Filename F:\Musique\Isasi, Andres\Isasi_StringQuartetVol1\02 - String Quartet No. 0- II. Molto lento.wav
Peak level 29.5 %
Extraction speed 9.6 X
Track quality 100.0 %
Copy CRC B7A58481
Copy OK
Track 3
Filename F:\Musique\Isasi, Andres\Isasi_StringQuartetVol1\03 - String Quartet No. 0- III. Berceuse- Andante molto tranquilo.wav
Peak level 61.2 %
Extraction speed 11.2 X
Track quality 99.9 %
Copy CRC 220BF647
Copy OK
Track 4
Filename F:\Musique\Isasi, Andres\Isasi_StringQuartetVol1\04 - String Quartet No. 0- IV. Final- un poco andante - allegro.wav
Peak level 70.1 %
Extraction speed 12.1 X
Track quality 99.9 %
Copy CRC 112A6398
Copy OK
Track 5
Filename F:\Musique\Isasi, Andres\Isasi_StringQuartetVol1\05 - String Quartet No. 2- I. Allegro agitato.wav
Peak level 89.7 %
Extraction speed 12.0 X
Track quality 99.9 %
Copy CRC 9E29E39E
Copy OK
Track 6
Filename F:\Musique\Isasi, Andres\Isasi_StringQuartetVol1\06 - String Quartet No. 2- II. Adagio.wav
Peak level 52.9 %
Extraction speed 11.3 X
Track quality 100.0 %
Copy CRC 0C135F31
Copy OK
Track 7
Filename F:\Musique\Isasi, Andres\Isasi_StringQuartetVol1\07 - String Quartet No. 2- III. Intermezzo- Allegretto giocoso _ Fuga- allegretto serioso.wav
Peak level 68.0 %
Extraction speed 12.4 X
Track quality 100.0 %
Copy CRC 419F96A3
Copy OK
Track 8
Filename F:\Musique\Isasi, Andres\Isasi_StringQuartetVol1\08 - String Quartet No. 2- IV. Final- Allegro - Allegro moderato.wav
Peak level 82.6 %
Extraction speed 13.0 X
Track quality 100.0 %
Copy CRC 3824A243
Copy OK
No errors occurred
End of status report
==== Log checksum 41884369F7DA8BF54748E1A3E3955A07655DBA886F839109FE3226FA6E8212B6 ====

CD 2.

Exact Audio Copy V1.0 beta 3 from 29. August 2011
EAC extraction logfile from 23. June 2015, 0:08
Isasi, Andres / String Quartets Vol. 2
Used drive : TSSTcorpCDDVDW SH-S223C Adapter: 0 ID: 1
Read mode : Secure
Utilize accurate stream : Yes
Defeat audio cache : Yes
Make use of C2 pointers : No
Read offset correction : 697
Overread into Lead-In and Lead-Out : No
Fill up missing offset samples with silence : Yes
Delete leading and trailing silent blocks : No
Null samples used in CRC calculations : Yes
Used interface : Native Win32 interface for Win NT & 2000
Gap handling : Appended to previous track
Used output format : User Defined Encoder
Selected bitrate : 1024 kBit/s
Quality : High
Add ID3 tag : No
Command line compressor : C:\Program Files (x86)\Exact Audio Copy\FLAC\FLAC.EXE
Additional command line options : -V -0 -T "Comment=Ripped by Tapaz9/Johnston" -T "artist=%artist%" -T "title=%title%" -T "album=%albumtitle%" -T "date=%year%" -T "tracknumber=%tracknr%" -T "genre=%genre%" %source%
TOC of the extracted CD
Track | Start | Length | Start sector | End sector
---------------------------------------------------------
1 | 0:00.00 | 9:21.33 | 0 | 42107
2 | 9:21.33 | 7:27.63 | 42108 | 75695
3 | 16:49.21 | 6:11.37 | 75696 | 103557
4 | 23:00.58 | 6:50.17 | 103558 | 134324
5 | 29:51.00 | 10:27.50 | 134325 | 181399
6 | 40:18.50 | 5:39.43 | 181400 | 206867
7 | 45:58.18 | 6:02.20 | 206868 | 234037
8 | 52:00.38 | 5:22.07 | 234038 | 258194
9 | 57:22.45 | 2:39.70 | 258195 | 270189
10 | 60:02.40 | 3:44.07 | 270190 | 286996
Track 1
Filename F:\Musique\Isasi, Andres\Isasi_StringQuartetVol2\01 - String Quartet No.4 in E minor, Op.31 (1921) - Allegro graziozo.wav
Pre-gap length 0:00:02.00
Peak level 70.1 %
Extraction speed 11.7 X
Track quality 100.0 %
Copy CRC F75C5982
Copy OK
Track 2
Filename F:\Musique\Isasi, Andres\Isasi_StringQuartetVol2\02 - String Quartet No.4 in E minor, Op.31 (1921) - Romanze.wav
Peak level 57.7 %
Extraction speed 11.8 X
Track quality 99.9 %
Copy CRC 014F2ACF
Copy OK
Track 3
Filename F:\Musique\Isasi, Andres\Isasi_StringQuartetVol2\03 - String Quartet No.4 in E minor, Op.31 (1921) - Scherzo.wav
Peak level 70.6 %
Extraction speed 12.0 X
Track quality 99.9 %
Copy CRC 9642882A
Copy OK
Track 4
Filename F:\Musique\Isasi, Andres\Isasi_StringQuartetVol2\04 - String Quartet No.4 in E minor, Op.31 (1921) - Rondo.wav
Peak level 99.0 %
Extraction speed 11.8 X
Track quality 100.0 %
Copy CRC AF3BED5C
Copy OK
Track 5
Filename F:\Musique\Isasi, Andres\Isasi_StringQuartetVol2\05 - String Quartet No.3 in E minor, Op.30 (1921) (unfinished) - I..wav
Peak level 82.5 %
Extraction speed 13.7 X
Track quality 100.0 %
Copy CRC B6133D93
Copy OK
Track 6
Filename F:\Musique\Isasi, Andres\Isasi_StringQuartetVol2\06 - String Quartet No.3 in E minor, Op.30 (1921) (unfinished) - II. Scherzo.wav
Peak level 80.1 %
Extraction speed 11.6 X
Track quality 100.0 %
Copy CRC D24BC9B8
Copy OK
Track 7
Filename F:\Musique\Isasi, Andres\Isasi_StringQuartetVol2\07 - String Quartet No.3 in E minor, Op.30 (1921) (unfinished) - III. Adagio molto espressivo.wav
Peak level 68.5 %
Extraction speed 8.4 X
Track quality 100.0 %
Copy CRC D912BE34
Copy OK
Track 8
Filename F:\Musique\Isasi, Andres\Isasi_StringQuartetVol2\08 - Aria in D major- Andante.wav
Peak level 69.7 %
Extraction speed 6.6 X
Track quality 100.0 %
Copy CRC 444E165F
Copy OK
Track 9
Filename F:\Musique\Isasi, Andres\Isasi_StringQuartetVol2\09 - Scherzetto in F minor.wav
Peak level 74.8 %
Extraction speed 10.4 X
Track quality 100.0 %
Copy CRC 058BEFAC
Copy OK
Track 10
Filename F:\Musique\Isasi, Andres\Isasi_StringQuartetVol2\10 - Preludio in A major 'Jinete de Abril', Op.51, No.1 (1934).wav
Peak level 75.3 %
Extraction speed 7.6 X
Track quality 99.9 %
Copy CRC F96DBF1E
Copy OK
No errors occurred
End of status report
==== Log checksum EB63385C990C923D9884E200BDFDBD18A547BCD506AE59137C3FE738F5F54914 ====

CD 3.

Exact Audio Copy V1.0 beta 3 from 29. August 2011
EAC extraction logfile from 26. June 2015, 20:41
Isasi, Andres / String Quartets, Vol. 3 (Isasi Quartet)
Used drive : TSSTcorpCDDVDW SH-S223C Adapter: 0 ID: 1
Read mode : Secure
Utilize accurate stream : Yes
Defeat audio cache : Yes
Make use of C2 pointers : No
Read offset correction : 697
Overread into Lead-In and Lead-Out : No
Fill up missing offset samples with silence : Yes
Delete leading and trailing silent blocks : No
Null samples used in CRC calculations : Yes
Used interface : Native Win32 interface for Win NT & 2000
Gap handling : Appended to previous track
Used output format : User Defined Encoder
Selected bitrate : 1024 kBit/s
Quality : High
Add ID3 tag : No
Command line compressor : C:\Program Files (x86)\Exact Audio Copy\FLAC\FLAC.EXE
Additional command line options : -V -0 -T "Comment=Ripped by Tapaz9/Johnston" -T "artist=%artist%" -T "title=%title%" -T "album=%albumtitle%" -T "date=%year%" -T "tracknumber=%tracknr%" -T "genre=%genre%" %source%
TOC of the extracted CD
Track | Start | Length | Start sector | End sector
---------------------------------------------------------
1 | 0:00.00 | 7:04.15 | 0 | 31814
2 | 7:04.15 | 7:28.30 | 31815 | 65444
3 | 14:32.45 | 3:18.00 | 65445 | 80294
4 | 17:50.45 | 6:16.15 | 80295 | 108509
5 | 24:06.60 | 8:10.00 | 108510 | 145259
6 | 32:16.60 | 6:19.45 | 145260 | 173729
7 | 38:36.30 | 3:04.60 | 173730 | 187589
8 | 41:41.15 | 7:12.45 | 187590 | 220034
9 | 48:53.60 | 11:15.15 | 220035 | 270674
10 | 60:09.00 | 5:43.15 | 270675 | 296414
11 | 65:52.15 | 6:15.53 | 296415 | 324592
Track 1
Filename F:\Musique\Isasi, Andres\Isasi_StringQuartet1and5\01 - String Quartet No. 1 in G major, Op. 11 (revised and completed by K. Dobers) - I. Allegro moderatissimo.wav
Pre-gap length 0:00:02.00
Peak level 66.6 %
Extraction speed 10.2 X
Track quality 100.0 %
Copy CRC 32C820CA
Copy OK
Track 2
Filename F:\Musique\Isasi, Andres\Isasi_StringQuartet1and5\02 - String Quartet No. 1 in G major, Op. 11 (revised and completed by K. Dobers) - II. Andante e romantico.wav
Peak level 78.4 %
Extraction speed 12.9 X
Track quality 100.0 %
Copy CRC 693DE21C
Copy OK
Track 3
Filename F:\Musique\Isasi, Andres\Isasi_StringQuartet1and5\03 - String Quartet No. 1 in G major, Op. 11 (revised and completed by K. Dobers) - III. Intermezzo- Allegretto e mosso.wav
Peak level 66.1 %
Extraction speed 11.4 X
Track quality 100.0 %
Copy CRC 95AE132C
Copy OK
Track 4
Filename F:\Musique\Isasi, Andres\Isasi_StringQuartet1and5\04 - String Quartet No. 1 in G major, Op. 11 (revised and completed by K. Dobers) - IV. Final- Allegro.wav
Peak level 98.3 %
Extraction speed 12.8 X
Track quality 100.0 %
Copy CRC 0F286450
Copy OK
Track 5
Filename F:\Musique\Isasi, Andres\Isasi_StringQuartet1and5\05 - String Quartet No. 5 in C Minor, Op. 32 (revised and completed by K. Dobers) - I. Allegro non troppo.wav
Peak level 97.7 %
Extraction speed 10.1 X
Track quality 99.9 %
Copy CRC 5E9B51AD
Copy OK
Track 6
Filename F:\Musique\Isasi, Andres\Isasi_StringQuartet1and5\06 - String Quartet No. 5 in C Minor, Op. 32 (revised and completed by K. Dobers) - II. Adagio.wav
Peak level 87.8 %
Extraction speed 11.0 X
Track quality 100.0 %
Copy CRC 67FC445D
Copy OK
Track 7
Filename F:\Musique\Isasi, Andres\Isasi_StringQuartet1and5\07 - String Quartet No. 5 in C Minor, Op. 32 (revised and completed by K. Dobers) - III. Allegretto vivace.wav
Peak level 83.1 %
Extraction speed 11.2 X
Track quality 100.0 %
Copy CRC 882C12E0
Copy OK
Track 8
Filename F:\Musique\Isasi, Andres\Isasi_StringQuartet1and5\08 - String Quartet No. 5 in C Minor, Op. 32 (revised and completed by K. Dobers) - IV. Final- Allegro.wav
Peak level 89.0 %
Extraction speed 9.3 X
Track quality 99.9 %
Copy CRC A7C6E636
Copy OK
Track 9
Filename F:\Musique\Isasi, Andres\Isasi_StringQuartet1and5\09 - Violin Sonata in F Minor, Op. 25 (revised and completed by K. Dobers) - I. Allegro. Un poco recitativo.wav
Peak level 88.9 %
Extraction speed 11.9 X
Track quality 100.0 %
Copy CRC 629F0DC6
Copy OK
Track 10
Filename F:\Musique\Isasi, Andres\Isasi_StringQuartet1and5\10 - Violin Sonata in F Minor, Op. 25 (revised and completed by K. Dobers) - II. Romance- Adagio.wav
Peak level 100.0 %
Extraction speed 11.8 X
Track quality 100.0 %
Copy CRC EF9AF402
Copy OK
Track 11
Filename F:\Musique\Isasi, Andres\Isasi_StringQuartet1and5\11 - Violin Sonata in F Minor, Op. 25 (revised and completed by K. Dobers) - III. Allegro molto.wav
Peak level 98.9 %
Extraction speed 11.8 X
Track quality 100.0 %
Copy CRC 196E43E7
Copy OK
No errors occurred
End of status report
==== Log checksum 93368BF891113C683DE991E9585AA8CB08EE0EECA338A4BCCDA17A830574AF3E ====

Содержание индексных карт (.CUE)CD 1.

REM GENRE Classical
REM DISCID 740CE108
REM COMMENT "ExactAudioCopy v1.0b3"
FILE "01 - String Quartet No. 0 in E minor, Op. 83 (1908) - I. Allegro moderato ed espressivo.wav" WAVE
TRACK 01 AUDIO
INDEX 01 00:00:00
FILE "02 - String Quartet No. 0 in E minor, Op. 83 (1908) - II. Molto lento.wav" WAVE
TRACK 02 AUDIO
INDEX 01 00:00:00
FILE "03 - String Quartet No. 0 in E minor, Op. 83 (1908) - III. Berceuse. Andante molto tranquillo.wav" WAVE
TRACK 03 AUDIO
INDEX 01 00:00:00
FILE "04 - String Quartet No. 0 in E minor, Op. 83 (1908) - IV. Final. Un poco andante - Allegro.wav" WAVE
TRACK 04 AUDIO
INDEX 01 00:00:00
FILE "05 - String Quartet No. 2 in A minor, Op. 27 (1920) - I. Allegro agitato.wav" WAVE
TRACK 05 AUDIO
INDEX 01 00:00:00
FILE "06 - String Quartet No. 2 in A minor, Op. 27 (1920) - II. Adagio.wav" WAVE
TRACK 06 AUDIO
INDEX 01 00:00:00
FILE "07 - String Quartet No. 2 in A minor, Op. 27 (1920) - III. Intermezzo. Allegretto giocoso - Fuga. Allegretto serioso.wav" WAVE
TRACK 07 AUDIO
INDEX 01 00:00:00
FILE "08 - String Quartet No. 2 in A minor, Op. 27 (1920) - IV. Final. Allegro - Allegro moderato.wav" WAVE
TRACK 08 AUDIO
INDEX 01 00:00:00

CD 2.

REM GENRE Classical
REM DATE 2013
REM DISCID 700EF20A
REM COMMENT "ExactAudioCopy v1.0b3"
FILE "01 - String Quartet No. 4 in D major, Op. 31 (1921) - I. Allegro grazioso.wav" WAVE
TRACK 01 AUDIO
INDEX 01 00:00:00
FILE "02 - String Quartet No. 4 in D major, Op. 31 (1921) - II. Romanze.wav" WAVE
TRACK 02 AUDIO
INDEX 01 00:00:00
FILE "03 - String Quartet No. 4 in D major, Op. 31 (1921) - III. Scherzo.wav" WAVE
TRACK 03 AUDIO
INDEX 01 00:00:00
FILE "04 - String Quartet No. 4 in D major, Op. 31 (1921) - IV. Rondo.wav" WAVE
TRACK 04 AUDIO
INDEX 01 00:00:00
FILE "05 - String Quartet No. 3 in E minor, Op. 30 (1921, unfinished) - I..wav" WAVE
TRACK 05 AUDIO
INDEX 01 00:00:00
FILE "06 - String Quartet No. 3 in E minor, Op. 30 (1921, unfinished) - II. Scherzo.wav" WAVE
TRACK 06 AUDIO
INDEX 01 00:00:00
FILE "07 - String Quartet No. 3 in E minor, Op. 30 (1921, unfinished) - III. Adagio molto espressivo.wav" WAVE
TRACK 07 AUDIO
INDEX 01 00:00:00
FILE "08 - Aria in D major. Andante.wav" WAVE
TRACK 08 AUDIO
INDEX 01 00:00:00
FILE "09 - Scherzetto in F minor.wav" WAVE
TRACK 09 AUDIO
INDEX 01 00:00:00
FILE "10 - Preludio in A major 'Jinete de Abril', Op. 51 no. 1 (1934).wav" WAVE
TRACK 10 AUDIO
INDEX 01 00:00:00

CD 3.

REM GENRE Classical
REM DISCID 9C10E70B
REM COMMENT "ExactAudioCopy v1.0b3"
FILE "01 - String Quartet No. 1 in G major, Op. 11 (1911, rev. 1914) - I. Allegro moderatissimo.wav" WAVE
TRACK 01 AUDIO
INDEX 01 00:00:00
FILE "02 - String Quartet No. 1 in G major, Op. 11 (1911, rev. 1914) - II. Andante e romantico.wav" WAVE
TRACK 02 AUDIO
INDEX 01 00:00:00
FILE "03 - String Quartet No. 1 in G major, Op. 11 (1911, rev. 1914) - III. Intermezzo. Allegretto e mosso.wav" WAVE
TRACK 03 AUDIO
INDEX 01 00:00:00
FILE "04 - String Quartet No. 1 in G major, Op. 11 (1911, rev. 1914) - IV. Final. Allegro.wav" WAVE
TRACK 04 AUDIO
INDEX 01 00:00:00
FILE "05 - String Quartet No. 5 in C minor, Op. 32 (1921) - I. Allegro non troppo.wav" WAVE
TRACK 05 AUDIO
INDEX 01 00:00:00
FILE "06 - String Quartet No. 5 in C minor, Op. 32 (1921) - II. Adagio.wav" WAVE
TRACK 06 AUDIO
INDEX 01 00:00:00
FILE "07 - String Quartet No. 5 in C minor, Op. 32 (1921) - III. Allegretto vivace.wav" WAVE
TRACK 07 AUDIO
INDEX 01 00:00:00
FILE "08 - String Quartet No. 5 in C minor, Op. 32 (1921) - IV. Final. Allegro.wav" WAVE
TRACK 08 AUDIO
INDEX 01 00:00:00
FILE "09 - Violin Sonata in F minor, Op. 25 (1917) - I. Allegro. Un poco recitativo.wav" WAVE
TRACK 09 AUDIO
INDEX 01 00:00:00
FILE "10 - Violin Sonata in F minor, Op. 25 (1917) - II. Romance. Adagio.wav" WAVE
TRACK 10 AUDIO
INDEX 01 00:00:00
FILE "11 - Violin Sonata in F minor, Op. 25 (1917) - III. Allegro molto.wav" WAVE
TRACK 11 AUDIO
INDEX 01 00:00:00



Показать сообщения:    

Текущее время: 03-Дек 09:50

Часовой пояс: UTC + 3


Вы не можете начинать темы
Вы не можете отвечать на сообщения
Вы не можете редактировать свои сообщения
Вы не можете удалять свои сообщения
Вы не можете голосовать в опросах
Вы не можете прикреплять файлы к сообщениям
Вы не можете скачивать файлы