(Classical) Хоакин Турина – Все фортепианные трио / Joaquin Turina – Complete piano trios: en fa, Nos. 1 & 2, «Circulo» (Trio Arriaga: Daniel Ligorio, Felipe Rodriguez, David Apellaniz) - 2010, FLAC (image+.cue) lossless


 

[Цитировать]

Хоакин Турина – Все фортепианные трио / Joaquín Turina – Complete piano trios: en fa, Nos. 1 & 2, «Circulo» (Trio Arriaga: Daniel Ligorio, Felipe Rodríguez, David Apellániz)
Жанр: Classical
Страна-производитель диска: Испания?
Год издания диска: 2010
Издатель (лейбл): Columna música
Номер по каталогу: 1CM0253
Дата записи: 6 и 7 октября 2009 г., Хетафе.
Аудиокодек: FLAC
Тип рипа: image+.cue
Битрейт аудио: lossless
Продолжительность: 01:06:40
Источник: odeonmusic
Наличие сканов в содержимом раздачи: да
Треклист:-Хоакин Турина Перес (1882 — 1949).
Полное собрание произведений для фортепиано, скрипки и виолончели.-Трио f-moll [sic] (первое исп. 1904).
01. I. Lento. — Allegro ma non tanto [07:32].
02. II. Andante [06:43].
03. III. Allegro, alla danza [02:19].
04. IV. Andante grandioso. — Prestissimo. — Andante grandioso [06:03].
«Круг...» (Círculo...), фантазия Des-dur, op. 91 (1936, первое исп. 1942).
05. I. Рассвет (Amanecer). Lento. — Andantino. — Andantino mosso [09:17].
06. II. Полдень (Mediodía). Allegretto quasi andantino. — Allegro moderato. — Allegretto quasi andantino. — [02:12].
07. III. Сумерки (Crepúsculo). Allegro vivace. — Allegro. — Allegro molto moderato. — Andantino. — Andante. — Lento [03:37].
Трио № 1 D-dur, op. 35 (1925 — 1926).
08. I. Прелюдия и фуга. Lento. — Fugue (à l'inverse) [06:45].
09. II. Тема и вариации. Тема. Andante. — I. [Муньейра.] Allegro moderato. — II. [Чотис.] Andantino mosso. — III. [Сортсико.] Moderato. — IV. [Хота.] Allegro. — Andante. — Allegro. — Andante. — Allegro. — V. [Солеа.] Andantino. — [Тема.] Andante [07:36].
10. III. Соната (финал). Allegro [06:14].
Трио № 2 h-moll, op. 76 (1932 — 1933).
11. I. Lento. — Allegro molto moderato. — Lento. — Allegro molto moderato [06:07].
12. II. Molto vivace [02:42].
13. III. Lento. — Andante mosso. — Allegro [05:14].-Исполнители:
Trio Arriaga:
Daniel Ligorio (фортепиано),
Felipe Rodríguez (скрипка),
David Apellániz (виолончель).-

Лог создания рипа

Exact Audio Copy V1.0 beta 3 from 29. August 2011
EAC extraction logfile from 21. November 2012, 22:41
Trio Arriaga / Turina – Piano Trios – Trio Arriaga
Used drive : TSSTcorpCDDVDW SH-222BB Adapter: 2 ID: 1
Read mode : Secure
Utilize accurate stream : Yes
Defeat audio cache : Yes
Make use of C2 pointers : No
Read offset correction : 6
Overread into Lead-In and Lead-Out : No
Fill up missing offset samples with silence : Yes
Delete leading and trailing silent blocks : No
Null samples used in CRC calculations : Yes
Used interface : Native Win32 interface for Win NT & 2000
Used output format : User Defined Encoder
Selected bitrate : 1024 kBit/s
Quality : High
Add ID3 tag : No
Command line compressor : C:\Program Files\Exact Audio Copy\Flac\flac.exe
Additional command line options : -8 -V -T "TITLE=%title%" -T "ARTIST=%artist%" -T "ALBUMARTIST=%albumartist%" -T "ALBUM=%albumtitle%" -T "DATE=%year%" -T "TRACKNUMBER=%tracknr%" -T "TRACKTOTAL=%numtracks%" -T "GENRE=%genre%" -T "COMMENT=%comment%" -T "PERFORMER=%albuminterpret%" -T "COMPOSER=%composer%" %source% -o %dest%
TOC of the extracted CD
Track | Start | Length | Start sector | End sector
---------------------------------------------------------
1 | 0:00.00 | 7:31.42 | 0 | 33866
2 | 7:31.42 | 6:43.24 | 33867 | 64115
3 | 14:14.66 | 2:18.62 | 64116 | 74527
4 | 16:33.53 | 6:02.51 | 74528 | 101728
5 | 22:36.29 | 3:28.12 | 101729 | 117340
6 | 26:04.41 | 2:11.48 | 117341 | 127213
7 | 28:16.14 | 3:36.72 | 127214 | 143485
8 | 31:53.11 | 6:55.70 | 143486 | 174680
9 | 38:49.06 | 7:35.64 | 174681 | 208869
10 | 46:24.70 | 6:14.03 | 208870 | 236922
11 | 52:38.73 | 6:06.58 | 236923 | 264430
12 | 58:45.56 | 2:41.39 | 264431 | 276544
13 | 61:27.20 | 5:13.43 | 276545 | 300062
Range status and errors
Selected range
Filename G:\Ripped general\[9391] Turina – Piano Trios – Trio Arriaga\Turina – Piano Trios – Trio Arriaga.wav
Peak level 100.0 %
Extraction speed 7.2 X
Range quality 100.0 %
Test CRC 3A02E86E
Copy CRC 3A02E86E
Copy OK
No errors occurred
AccurateRip summary
Track 1 not present in database
Track 2 not present in database
Track 3 not present in database
Track 4 not present in database
Track 5 not present in database
Track 6 not present in database
Track 7 not present in database
Track 8 not present in database
Track 9 not present in database
Track 10 not present in database
Track 11 not present in database
Track 12 not present in database
Track 13 not present in database
None of the tracks are present in the AccurateRip database
End of status report

Содержание индексной карты (.CUE)

REM GENRE Classical
REM DISCID D80FA00D
REM COMMENT "ExactAudioCopy v1.0b3"
PERFORMER "Trio Arriaga"
TITLE "Turina – Piano Trios – Trio Arriaga"
FILE "Turina – Piano Trios – Trio Arriaga.flac" WAVE
TRACK 01 AUDIO
TITLE "Trio en Fa - I. Lento - Allegro ma non tanto"
PERFORMER "Trio Arriaga"
INDEX 01 00:00:00
TRACK 02 AUDIO
TITLE "Trio en Fa - II. Andante"
PERFORMER "Trio Arriaga"
INDEX 00 07:29:42
INDEX 01 07:31:42
TRACK 03 AUDIO
TITLE "Trio en Fa - III. Allegro, alla danza"
PERFORMER "Trio Arriaga"
INDEX 00 14:12:66
INDEX 01 14:14:66
TRACK 04 AUDIO
TITLE "Trio en Fa - IV. Andante grandioso"
PERFORMER "Trio Arriaga"
INDEX 00 16:31:53
INDEX 01 16:33:53
TRACK 05 AUDIO
TITLE "Circulo, op. 91 - I. Amanecer"
PERFORMER "Trio Arriaga"
INDEX 00 22:29:29
INDEX 01 22:36:29
TRACK 06 AUDIO
TITLE "Circulo, op. 91 - II. Mediodia"
PERFORMER "Trio Arriaga"
INDEX 00 26:02:41
INDEX 01 26:04:41
TRACK 07 AUDIO
TITLE "Circulo, op. 91 - III. Crepusculo"
PERFORMER "Trio Arriaga"
INDEX 01 28:16:14
TRACK 08 AUDIO
TITLE "Trio No. 1 en re mayor, op. 35 - I. Preludio y fuga"
PERFORMER "Trio Arriaga"
INDEX 00 31:46:11
INDEX 01 31:53:11
TRACK 09 AUDIO
TITLE "Trio No. 1 en re mayor, op. 35 - II. Tema con variaciones"
PERFORMER "Trio Arriaga"
INDEX 00 38:47:06
INDEX 01 38:49:06
TRACK 10 AUDIO
TITLE "Trio No. 1 en re mayor, op. 35 - III. Sonata"
PERFORMER "Trio Arriaga"
INDEX 00 46:22:70
INDEX 01 46:24:70
TRACK 11 AUDIO
TITLE "Trio No. 2 en si menor, op. 76 - I. Lento - Allegro molto moderato"
PERFORMER "Trio Arriaga"
INDEX 00 52:31:73
INDEX 01 52:38:73
TRACK 12 AUDIO
TITLE "Trio No. 2 en si menor, op. 76 - II. Molto vivace"
PERFORMER "Trio Arriaga"
INDEX 00 58:43:56
INDEX 01 58:45:56
TRACK 13 AUDIO
TITLE "Trio No. 2 en si menor, op. 76 - III. Lento - Andante mosso - Allegro"
PERFORMER "Trio Arriaga"
INDEX 00 61:25:20
INDEX 01 61:27:20



Показать сообщения:    

Текущее время: 07-Дек 21:22

Часовой пояс: UTC + 3


Вы не можете начинать темы
Вы не можете отвечать на сообщения
Вы не можете редактировать свои сообщения
Вы не можете удалять свои сообщения
Вы не можете голосовать в опросах
Вы не можете прикреплять файлы к сообщениям
Вы не можете скачивать файлы