[TR24][OF] Ludwig van Beethoven: Symphonies Nos. 1, 2 & 3 - Wiener Philharmoniker, Christian Thielemann - 2011/2015 (Classical)


Статистика раздачи [Обновить пиров]
Размер:  1.1 GB   |    Зарегистрирован:  8 месяцев 13 дней   |    Скачан:  0 раз

Полного источника не было: Никогда

 
   
 
 
 

[Цитировать]

Ludwig van Beethoven
Symphonies Nos. 1, 2 & 3
Wiener Philharmoniker · Christian Thielemann
-Год издания/переиздания: 2011/2015 | Жанр: Classical
Издатель: Sony Classical | Продолжительность: 01:57:16
Наличие сканов: Sleeve- -Wiener Philharmoniker
Christian Thielemann, conductor
Recorded: Wiener Musikverein; Nos. 1-2: December 2008; No. 3: March 2009-Контейнер: FLAC (*.flac) | Тип рипа: tracks
Разрядность: 24bit / 48kHz | Количество каналов: 2.0
-Треклист
Ludwig van Beethoven (1770-1827)
CD 1
Symphony No. 1 in C Major, Op. 21
01. I. Adagio molto - Allegro con brio (9:51)
02. II. Andante cantabile con moto (8:36)
03. III. Menuetto. Allegro molto e vivace (3:08)
04. IV. Finale. Adagio - Allegro molto e vivace (5:51)
Symphony No. 2 in D Major, Op. 36
05. I. Adagio molto - Allegro con brio (12:02)
06. II. Larghetto (12:05)
07. III. Scherzo. Allegro (3:19)
08. IV. Allegro molto (6:20)
CD 2
Symphony No. 3 in E-flat Major, Op. 55 "Eroica"
01. I. Allegro con brio (19:36)
02. II. Marcia funebre. Adagio assai (17:51)
03. III. Scherzo. Allegro vivace (5:44)
04. IV. Finale. Allegro molto (12:53)

О релизе


At a time when it seems that the contemporary movement for historically informed practices has won over most performers of Ludwig van Beethoven's nine symphonies, along comes Christian Thielemann to spin the clock back to the mindset of the mid-20th century. Interpreting the symphonies with a conventional, even hidebound, approach that bears no sign of late Classical scholarship (streamlined tempos, smaller orchestras, original instrumentation, or other aspects of the way the music was actually played in the composer's time), Thielemann presents a Beethoven that is rather more in the manner of Wilhelm Furtwängler than of, say, John Eliot Gardiner. Listeners who have not yet taken the plunge into authentic period practices may have wondered where the traditionalist could turn for old-fashioned, Teutonic performances that employ a full modern orchestra, conform to expected (i.e., slower) tempos, and generally have a homogenized orchestral blend with thick textures. Here is Thielemann, unapologetic and confident, and for what it is, his set is a solid, dependable cycle that doesn't pretend to be something it isn't, and it will not disappoint its intended audience. Indeed, the Vienna Philharmonic is one of the last bastions of tradition, and Thielemann surely will satisfy all who are nostalgic for the old style. There are some eccentricities of particular interest in the Finale of the Ninth, where Thielemann surprises with sneak-attack accelerandos, and his breakneck speed in the final pages will leave anyone breathless. But on the whole, this is a conservative's vision of Beethoven, and the live performances really bring the not-so-distant past to life. This deluxe box set offers six CDs and a DVD, Making van Beethoven, stored in a hard cover book with liner notes and a cloth-covered slipcase. --Blair Sanderson

ОтчётыДинамический диапазон

CD 1
foobar2000 1.3.8 / Dynamic Range Meter 1.1.1
log date: 2015-07-02 12:24:05
--------------------------------------------------------------------------------
Analyzed: Christian Thielemann, Wiener Philharmoniker / Beethoven: Symphonies Nos. 1, 2 & 3
--------------------------------------------------------------------------------
DR Peak RMS Duration Track
--------------------------------------------------------------------------------
DR14 -4.57 dB -23.12 dB 9:51 01-Symphony No. 1 in C Major, Op. 21 - I. Adagio molto - Allegro con brio
DR14 -7.92 dB -27.55 dB 8:36 02-Symphony No. 1 in C Major, Op. 21 - II. Andante cantabile con moto
DR13 -5.30 dB -22.64 dB 3:08 03-Symphony No. 1 in C Major, Op. 21 - III. Menuetto. Allegro molto e vivace
DR13 -4.32 dB -22.19 dB 5:51 04-Symphony No. 1 in C Major, Op. 21 - IV. Finale. Adagio - Allegro molto e vivace
DR14 -3.68 dB -21.44 dB 12:02 05-Symphony No. 2 in D Major, Op. 36 - I. Adagio molto - Allegro con brio
DR14 -6.38 dB -26.52 dB 12:05 06-Symphony No. 2 in D Major, Op. 36 - II. Larghetto
DR13 -4.67 dB -23.82 dB 3:19 07-Symphony No. 2 in D Major, Op. 36 - III. Scherzo. Allegro
DR12 -3.68 dB -21.31 dB 6:20 08-Symphony No. 2 in D Major, Op. 36 - IV. Allegro molto
--------------------------------------------------------------------------------
Number of tracks: 8
Official DR value: DR13
Samplerate: 48000 Hz
Channels: 2
Bits per sample: 24
Bitrate: 1395 kbps
Codec: FLAC
================================================================================
CD 2
foobar2000 1.3.8 / Dynamic Range Meter 1.1.1
log date: 2015-07-02 12:25:23
--------------------------------------------------------------------------------
Analyzed: Christian Thielemann, Wiener Philharmoniker / Beethoven: Symphonies Nos. 1, 2 & 3
--------------------------------------------------------------------------------
DR Peak RMS Duration Track
--------------------------------------------------------------------------------
DR14 -3.19 dB -22.66 dB 19:36 01-Symphony No. 3 in E-flat Major, Op. 55 "Eroica" - I. Allegro con brio
DR15 -2.50 dB -24.76 dB 17:51 02-Symphony No. 3 in E-flat Major, Op. 55 "Eroica" - II. Marcia funebre. Adagio assai
DR15 -0.69 dB -24.00 dB 5:44 03-Symphony No. 3 in E-flat Major, Op. 55 "Eroica" - III. Scherzo. Allegro vivace
DR14 -3.45 dB -22.51 dB 12:53 04-Symphony No. 3 in E-flat Major, Op. 55 "Eroica" - IV. Finale. Allegro molto
--------------------------------------------------------------------------------
Number of tracks: 4
Official DR value: DR14
Samplerate: 48000 Hz
Channels: 2
Bits per sample: 24
Bitrate: 1359 kbps
Codec: FLAC
================================================================================

Скриншот спектра частот

Доп. информация

При скачивании, если необходимо, переименуйте папку, в которой будет находиться альбомБольшая просьба к скачавшим поддерживать раздачу! Помогайте другим, ведь вам тоже может понадобиться помощь!Не забываем говорить "Спасибо"!Комментарии приветствуются!
Christian Thielemann Hi-Res
[teatrix.ru].t21615.torrent 
Торрент: Зарегистрирован [ 2016-03-20 12:43 ] · 801611B48CA6CC8A4BE9B37930BDEE286D89055F

Скачать .torrent

Скачать

13 KB

Статус: проверено
Скачан: 0 раз
Размер: 1.1 GB
terms.php



Быстрый ответ

Имя:

      
Для отправки сообщений необходимо включить JavaScript
Показать сообщения:    

Текущее время: 03-Дек 07:37

Часовой пояс: UTC + 3


Вы можете начинать темы
Вы можете отвечать на сообщения
Вы не можете редактировать свои сообщения
Вы не можете удалять свои сообщения
Вы не можете голосовать в опросах
Вы не можете прикреплять файлы к сообщениям
Вы можете скачивать файлы