[TR24][OF] Lindsey Stirling - Shatter Me - 2014 (Pop, Instrumental, Dubstep)


Статистика раздачи [Обновить пиров]
Размер:  1 GB   |    Зарегистрирован:  8 месяцев 15 дней   |    Скачан:  0 раз

Полного источника не было: Никогда

 
   
 
 
 

[Цитировать]

Lindsey Stirling / Shatter Me
Формат записи/Источник записи: [TR24][OF]
Наличие водяных знаков: Нет
Год издания: 2014
Жанр: Pop, Instrumental, Dubstep
Год издания: 2014
Издатель (лейбл): Lindseystomp Music LLC
Продолжительность: 00:47:13
Наличие сканов в содержимом раздачи: Нет
Треклист:
1. Beyond the Veil
2. Mirror Haus
3. V-Pop
4. Shatter Me Featuring Lzzy Hale
5. Heist
6. Roundtable Rival
7. Night Vision
8. Take Flight
9. Ascendance
10. We Are Giants Featuring Dia Frampton
11. Swag
12. Master of Tides
Контейнер: FLAC (*.flac)
Тип рипа: tracks
Разрядность: 24/96
Формат: FLAC
Количество каналов: 2.0
Источник (релизер): Web

Динамический диапазон

foobar2000 1.3.8 / Dynamic Range Meter 1.1.1
log date: 2015-08-05 04:12:29
--------------------------------------------------------------------------------
Analyzed: Lindsey Stirling / Shatter Me (24 bit)
--------------------------------------------------------------------------------
DR Peak RMS Duration Track
--------------------------------------------------------------------------------
DR6 -0.60 dB -8.28 dB 4:15 01-Beyond The Veil
DR6 -0.60 dB -8.73 dB 3:56 02-Mirror Haus
DR7 -0.60 dB -9.02 dB 3:46 03-V-Pop
DR5 -0.60 dB -7.29 dB 4:41 04-Shatter Me
DR7 -0.60 dB -9.34 dB 3:27 05-Heist
DR5 -0.60 dB -7.70 dB 3:23 06-Roundtable Rival
DR6 -0.60 dB -9.29 dB 3:40 07-Night Vision
DR6 -0.60 dB -7.92 dB 4:24 08-Take Flight
DR7 -0.60 dB -9.55 dB 4:26 09-Ascendance
DR5 -0.60 dB -7.30 dB 3:44 10-We Are Giants (feat. Dia Frampton)
DR6 -0.60 dB -8.30 dB 3:10 11-Swag
DR6 -0.60 dB -8.21 dB 4:22 12-Master Of Tides
--------------------------------------------------------------------------------
Number of tracks: 12
Official DR value: DR6
Samplerate: 96000 Hz
Channels: 2
Bits per sample: 24
Bitrate: 2985 kbps
Codec: FLAC
=======================================================

Скриншот спектра частот












[teatrix.ru].t21616.torrent 
Торрент: Зарегистрирован [ 2016-03-20 12:43 ] · CD431A92B8408D10D9878781C11FEE0F14D85415

Скачать .torrent

Скачать

11 KB

Статус: проверено
Скачан: 0 раз
Размер: 1 GB
terms.php



Быстрый ответ

Имя:

      
Для отправки сообщений необходимо включить JavaScript
Показать сообщения:    

Текущее время: 04-Дек 19:18

Часовой пояс: UTC + 3


Вы можете начинать темы
Вы можете отвечать на сообщения
Вы не можете редактировать свои сообщения
Вы не можете удалять свои сообщения
Вы не можете голосовать в опросах
Вы не можете прикреплять файлы к сообщениям
Вы можете скачивать файлы