(Classical) Early Italian Chamber Music: Castello, Fontana, Montalbano, Cima, Merula, Bassano, Berardi, Conforti, Frescobaldi, Pandolfi Mealli - Dan Laurin, Masaaki Suzuki - 2005, FLAC (image+.cue) lossless


 

[Цитировать]

Early Italian Chamber Music: Castello, Fontana, Montalbano, Cima, Merula, Bassano, Berardi, Conforti, Frescobaldi, Pandolfi Mealli - Dan Laurin, Masaaki Suzuki
Жанр: Classical
Страна-производитель диска: Sweden
Год издания диска: 2005
Издатель (лейбл): BIS
Номер по каталогу: BIS-CD-1335
Дата записи: 2002
Аудиокодек: FLAC
Тип рипа: image+.cue
Битрейт аудио: lossless
Продолжительность: 68:21
Источник: собственный рип
Наличие сканов в содержимом раздачи: да
Треклист:
Dario Castello (fl. early 17th century)
[1] Sonata prima for recorder and basso continuo
Giovanni Battista Fontana (?-1631)
[2] Sonata seconda for recorder and basso continuo
Bartolomeo Montalbano (1596?-1651)
[3] Sinfonia Prima: Arezzo for recorder and harpsichord
Giovanni Paolo Cima (c.1570-after 1622)
[4] Sonata seconda for recorder and basso continuo
Tarquinio Merula (1594/5-1665)
[5] Sonata prima for recorder and basso continuo
Giovanni Bassano (1558?-1617)
[6] Ricercata Ottava for recorder
Angelo Berardi (c.1636-1694)
[7] Canzone Sesta for recorder and basso continuo
Bartolomeo Montalbano
[8] Sinfonia Quarta: Geloso for recorder and harpsichord
Giovanni Luca Conforti (1560?-1608)
[9] Laudate Pueri for recorder and basso continuo
Giovanni Paolo Cima
[10] Sonata prima for recorder and basso continuo
Girolamo Frescobaldi (1583-1643)
[11] Canzona terza for organ
Two canzoni for recorder and basso continuo
[12] Canzona Prima 'La Bonuisia'
[13] Canzona Seconda 'La Bernardina'
Giovanni Antonio Pandolfi Mealli (fl.1660-1669)
[14] Sonata 'La Bernabea' for recorder and basso continuo
Исполнители:
Dan Laurin recorder
Masaaki Suzuki harpsichord / organ

Лог создания рипа

Exact Audio Copy V1.0 beta 3 from 29. August 2011
EAC extraction logfile from 30. January 2015, 2:06
Dan Laurin, Masaaki Suzuki / Early Italian Chamber Music
Used drive : HL-DT-STDVDRAM GU70N Adapter: 0 ID: 0
Read mode : Secure
Utilize accurate stream : Yes
Defeat audio cache : Yes
Make use of C2 pointers : No
Read offset correction : 48
Overread into Lead-In and Lead-Out : No
Fill up missing offset samples with silence : Yes
Delete leading and trailing silent blocks : No
Null samples used in CRC calculations : Yes
Used interface : Native Win32 interface for Win NT & 2000
Used output format : User Defined Encoder
Selected bitrate : 128 kBit/s
Quality : High
Add ID3 tag : No
Command line compressor : C:\Program Files (x86)\Exact Audio Copy\Flac\flac.exe
Additional command line options : -V -8 -T "Date=%year%" -T "Genre=%genre%" %source%
TOC of the extracted CD
Track | Start | Length | Start sector | End sector
---------------------------------------------------------
1 | 0:00.00 | 5:29.00 | 0 | 24674
2 | 5:29.00 | 6:50.08 | 24675 | 55432
3 | 12:19.08 | 2:37.67 | 55433 | 67274
4 | 14:57.00 | 4:21.00 | 67275 | 86849
5 | 19:18.00 | 5:33.00 | 86850 | 111824
6 | 24:51.00 | 2:49.08 | 111825 | 124507
7 | 27:40.08 | 8:42.49 | 124508 | 163706
8 | 36:22.57 | 2:46.56 | 163707 | 176212
9 | 39:09.38 | 6:00.00 | 176213 | 203212
10 | 45:09.38 | 4:10.37 | 203213 | 221999
11 | 49:20.00 | 4:03.00 | 222000 | 240224
12 | 53:23.00 | 3:39.06 | 240225 | 256655
13 | 57:02.06 | 3:26.69 | 256656 | 272174
14 | 60:29.00 | 7:50.00 | 272175 | 307424
Range status and errors
Selected range
Filename C:\temp\BIS-CD-1335 - Early Italian Chamber Music - Dan Laurin, Masaaki Suzuki\Early Italian Chamber Music.wav
Peak level 100.0 %
Extraction speed 2.3 X
Range quality 100.0 %
Test CRC 4586F3FF
Copy CRC 4586F3FF
Copy OK
No errors occurred
AccurateRip summary
Track 1 not present in database
Track 2 not present in database
Track 3 not present in database
Track 4 not present in database
Track 5 not present in database
Track 6 not present in database
Track 7 not present in database
Track 8 not present in database
Track 9 not present in database
Track 10 not present in database
Track 11 not present in database
Track 12 not present in database
Track 13 not present in database
Track 14 not present in database
None of the tracks are present in the AccurateRip database
End of status report
==== Log checksum E95E73BF4B3A06283AE2D60A32844179DCA9FC906FC0464FC1D10F9923673930 ====



Показать сообщения:    

Текущее время: 03-Дек 20:38

Часовой пояс: UTC + 3


Вы не можете начинать темы
Вы не можете отвечать на сообщения
Вы не можете редактировать свои сообщения
Вы не можете удалять свои сообщения
Вы не можете голосовать в опросах
Вы не можете прикреплять файлы к сообщениям
Вы не можете скачивать файлы