(Classical) Jean-Yves Fourmeau, Hiroshi Nagao · Serenade (P. Creston, C. Pascal, M. Constant, R. Boutry, P. Sancan, D. Bedard) · 1996, FLAC (tracks+.cue) lossless


 

[Цитировать]

Serenade
Жанр: classical
Страна-производитель диска: Бельгия
Год издания диска: 1996
Издатель: René Gailly
Номер по каталогу: CD87 126
Дата записи: ?
Аудиокодек: FLAC
Тип рипа: tracks+.cue
Битрейт аудио: lossless
Продолжительность: 00:57:20
Источник: скачано с what.cd
Сканы в содержимом раздачи отсутствуют
Исполнители: Jean-Yves Fourmeau (saxophone), Hiroshi Nagao (piano)

Треклист

Paul Creston (1906–1985)
Sonata, Op. 19 (1939)
01. With Vigor (4:32)
02. With Tranquility (4:29)
03. With Gaiety (3:50)
Claude René G. Pascal (*1921)
04. Sonatine (1947) (7:53)
Marius Constant (*1925)
Musique de concert (1955)
05. Toccata (1:32)
06. Aria (2:04)
07. Ostinato (1:44)
08. Intermezzo (1:15)
09. Variazioni (2:39)
Roger Boutry (*1932)
Serenade (1957)
10. Introduction (2:58)
11. Divertissement (3:37)
12. Serenade (3:10)
13. Finale (3:16)
Pierre Sancan (*1916)
Lamento et rondo (1973)
14. Lamento (3:33)
15. Rondo (3:53)
Denis Bédard (*1950)
16. Fantaisie (1984) (6:54)

Лог создания рипа

Exact Audio Copy V1.0 beta 4 from 7. December 2014
EAC extraction logfile from 11. January 2015, 14:29
Jean-Yves Fourmeau & Hiroshi Nagao / Serenade
Used drive : Optiarc DVD RW AD-7280S Adapter: 1 ID: 0
Read mode : Secure
Utilize accurate stream : Yes
Defeat audio cache : Yes
Make use of C2 pointers : No
Read offset correction : 48
Overread into Lead-In and Lead-Out : No
Fill up missing offset samples with silence : Yes
Delete leading and trailing silent blocks : No
Null samples used in CRC calculations : Yes
Used interface : Native Win32 interface for Win NT & 2000
Gap handling : Appended to previous track
Used output format : User Defined Encoder
Selected bitrate : 1024 kBit/s
Quality : High
Add ID3 tag : No
Command line compressor : C:\Program Files (x86)\Exact Audio Copy\FLAC\FLAC.EXE
Additional command line options : -8 -V -T "ARTIST=%artist%" -T "TITLE=%title%" -T "ALBUM=%albumtitle%" -T "DATE=%year%" -T "TRACKNUMBER=%tracknr%" -T "GENRE=%genre%" -T "PERFORMER=%albuminterpret%" -T "COMPOSER=%composer%" %haslyrics%--tag-from-file=LYRICS="%lyricsfile%"%haslyrics% -T "ALBUMARTIST=%albumartist%" -T "DISCNUMBER=%cdnumber%" -T "TOTALDISCS=%totalcds%" -T "TOTALTRACKS=%numtracks%" -T "COMMENT=%comment%" %source% -o %dest%
TOC of the extracted CD
Track | Start | Length | Start sector | End sector
---------------------------------------------------------
1 | 0:00.00 | 4:31.72 | 0 | 20396
2 | 4:31.72 | 4:28.43 | 20397 | 40539
3 | 9:00.40 | 3:50.10 | 40540 | 57799
4 | 12:50.50 | 7:53.22 | 57800 | 93296
5 | 20:43.72 | 1:32.23 | 93297 | 100219
6 | 22:16.20 | 2:04.07 | 100220 | 109526
7 | 24:20.27 | 1:43.58 | 109527 | 117309
8 | 26:04.10 | 1:14.57 | 117310 | 122916
9 | 27:18.67 | 2:39.08 | 122917 | 134849
10 | 29:58.00 | 2:58.22 | 134850 | 148221
11 | 32:56.22 | 3:36.53 | 148222 | 164474
12 | 36:33.00 | 3:10.02 | 164475 | 178726
13 | 39:43.02 | 3:16.10 | 178727 | 193436
14 | 42:59.12 | 3:33.25 | 193437 | 209436
15 | 46:32.37 | 3:52.53 | 209437 | 226889
16 | 50:25.15 | 6:54.25 | 226890 | 257964
Track 1
Filename Q:\Music\Rips\Jean-Yves Fourmeau & Hiroshi Nagao - Serenade\01 - Paul Creston - Sonata opus 19 - With Vigor.wav
Pre-gap length 0:00:02.00
Peak level 88.4 %
Extraction speed 2.4 X
Track quality 100.0 %
Test CRC F5FE46D5
Copy CRC F5FE46D5
Track not present in AccurateRip database
Copy OK
Track 2
Filename Q:\Music\Rips\Jean-Yves Fourmeau & Hiroshi Nagao - Serenade\02 - Paul Creston - Sonata opus 19 - With Tranquility.wav
Pre-gap length 0:00:03.10
Peak level 65.8 %
Extraction speed 2.4 X
Track quality 99.9 %
Test CRC A58D2F98
Copy CRC A58D2F98
Track not present in AccurateRip database
Copy OK
Track 3
Filename Q:\Music\Rips\Jean-Yves Fourmeau & Hiroshi Nagao - Serenade\03 - Paul Creston - Sonata opus 19 - With Gaiety.wav
Pre-gap length 0:00:01.38
Peak level 91.7 %
Extraction speed 2.9 X
Track quality 100.0 %
Test CRC 3847C097
Copy CRC 3847C097
Track not present in AccurateRip database
Copy OK
Track 4
Filename Q:\Music\Rips\Jean-Yves Fourmeau & Hiroshi Nagao - Serenade\04 - Claude Pascal - Sonatine.wav
Pre-gap length 0:00:05.13
Peak level 86.5 %
Extraction speed 3.0 X
Track quality 99.9 %
Test CRC B0831DA3
Copy CRC B0831DA3
Track not present in AccurateRip database
Copy OK
Track 5
Filename Q:\Music\Rips\Jean-Yves Fourmeau & Hiroshi Nagao - Serenade\05 - Marius Constant - Musique de Concert - Toccata.wav
Pre-gap length 0:00:02.42
Peak level 84.0 %
Extraction speed 2.2 X
Track quality 99.8 %
Test CRC 0224C8C2
Copy CRC 0224C8C2
Track not present in AccurateRip database
Copy OK
Track 6
Filename Q:\Music\Rips\Jean-Yves Fourmeau & Hiroshi Nagao - Serenade\06 - Marius Constant - Musique de Concert - Aria.wav
Pre-gap length 0:00:00.23
Peak level 35.7 %
Extraction speed 3.1 X
Track quality 100.0 %
Test CRC 926B9317
Copy CRC 926B9317
Track not present in AccurateRip database
Copy OK
Track 7
Filename Q:\Music\Rips\Jean-Yves Fourmeau & Hiroshi Nagao - Serenade\07 - Marius Constant - Musique de Concert - Ostinato.wav
Pre-gap length 0:00:02.20
Peak level 97.7 %
Extraction speed 3.0 X
Track quality 100.0 %
Test CRC DB0AFC2F
Copy CRC DB0AFC2F
Track not present in AccurateRip database
Copy OK
Track 8
Filename Q:\Music\Rips\Jean-Yves Fourmeau & Hiroshi Nagao - Serenade\08 - Marius Constant - Musique de Concert - Intermezzo.wav
Pre-gap length 0:00:00.50
Peak level 48.4 %
Extraction speed 2.8 X
Track quality 100.0 %
Test CRC F7C1C551
Copy CRC F7C1C551
Track not present in AccurateRip database
Copy OK
Track 9
Filename Q:\Music\Rips\Jean-Yves Fourmeau & Hiroshi Nagao - Serenade\09 - Marius Constant - Musique de Concert - Variazioni.wav
Pre-gap length 0:00:01.45
Peak level 76.4 %
Extraction speed 3.5 X
Track quality 100.0 %
Test CRC 73988FF3
Copy CRC 73988FF3
Track not present in AccurateRip database
Copy OK
Track 10
Filename Q:\Music\Rips\Jean-Yves Fourmeau & Hiroshi Nagao - Serenade\10 - Roger Boutry - Serenade - Introduction.wav
Pre-gap length 0:00:04.05
Peak level 74.4 %
Extraction speed 3.2 X
Track quality 99.9 %
Test CRC 75D9D299
Copy CRC 75D9D299
Track not present in AccurateRip database
Copy OK
Track 11
Filename Q:\Music\Rips\Jean-Yves Fourmeau & Hiroshi Nagao - Serenade\11 - Roger Boutry - Serenade - Divertissement.wav
Peak level 82.9 %
Extraction speed 3.9 X
Track quality 100.0 %
Test CRC 3D97FF37
Copy CRC 3D97FF37
Track not present in AccurateRip database
Copy OK
Track 12
Filename Q:\Music\Rips\Jean-Yves Fourmeau & Hiroshi Nagao - Serenade\12 - Roger Boutry - Serenade - Serenade.wav
Pre-gap length 0:00:05.13
Peak level 50.1 %
Extraction speed 4.0 X
Track quality 100.0 %
Test CRC B4AD7171
Copy CRC B4AD7171
Track not present in AccurateRip database
Copy OK
Track 13
Filename Q:\Music\Rips\Jean-Yves Fourmeau & Hiroshi Nagao - Serenade\13 - Roger Boutry - Serenade - Finale.wav
Peak level 96.8 %
Extraction speed 4.1 X
Track quality 100.0 %
Test CRC 3F0799A9
Copy CRC 3F0799A9
Track not present in AccurateRip database
Copy OK
Track 14
Filename Q:\Music\Rips\Jean-Yves Fourmeau & Hiroshi Nagao - Serenade\14 - Pierre Sancan - Lamento et Rondo - Lamento.wav
Pre-gap length 0:00:04.10
Peak level 82.0 %
Extraction speed 4.3 X
Track quality 100.0 %
Test CRC 7E560984
Copy CRC 7E560984
Track not present in AccurateRip database
Copy OK
Track 15
Filename Q:\Music\Rips\Jean-Yves Fourmeau & Hiroshi Nagao - Serenade\15 - Pierre Sancan - Lamento et Rondo - Rondo.wav
Pre-gap length 0:00:01.57
Peak level 88.8 %
Extraction speed 4.0 X
Track quality 99.9 %
Test CRC CB52CEC3
Copy CRC CB52CEC3
Track not present in AccurateRip database
Copy OK
Track 16
Filename Q:\Music\Rips\Jean-Yves Fourmeau & Hiroshi Nagao - Serenade\16 - Denis Bedard - Fantaisie.wav
Pre-gap length 0:00:04.38
Peak level 57.9 %
Extraction speed 4.5 X
Track quality 99.9 %
Test CRC 97E0AEE7
Copy CRC 97E0AEE7
Track not present in AccurateRip database
Copy OK
None of the tracks are present in the AccurateRip database
No errors occurred
End of status report
---- CUETools DB Plugin V2.1.4
[CTDB TOCID: RubSraCYJAhCubH2yJYb5BeA3eM-] disk not present in database
Submit result: RubSraCYJAhCubH2yJYb5BeA3eM- has been uploaded
==== Log checksum 3C6DCEB43D99AE9AC780CFC44CD9D2FD770647EBD54C9948A51CFC6441814EBF ====

Содержание индексной карты (.CUE)

REM DATE 1996
REM DISCID E50D6F10
REM COMMENT "ExactAudioCopy v1.0b4"
PERFORMER "Jean-Yves Fourmeau & Hiroshi Nagao"
TITLE "Serenade"
FILE "01. Sonata, Op. 19 (1939). With Vigor.wav" WAVE
TRACK 01 AUDIO
TITLE "Sonata, Op. 19 (1939): With Vigor"
PERFORMER "Jean-Yves Fourmeau & Hiroshi Nagao"
INDEX 01 00:00:00
TRACK 02 AUDIO
TITLE "Sonata, Op. 19 (1939): With Tranquility"
PERFORMER "Jean-Yves Fourmeau & Hiroshi Nagao"
INDEX 00 04:28:62
FILE "02. Sonata, Op. 19 (1939). With Tranquility.wav" WAVE
INDEX 01 00:00:00
TRACK 03 AUDIO
TITLE "Sonata, Op. 19 (1939): With Gaiety"
PERFORMER "Jean-Yves Fourmeau & Hiroshi Nagao"
INDEX 00 04:27:05
FILE "03. Sonata, Op. 19 (1939). With Gaiety.wav" WAVE
INDEX 01 00:00:00
TRACK 04 AUDIO
TITLE "Sonatine (1947)"
PERFORMER "Jean-Yves Fourmeau & Hiroshi Nagao"
INDEX 00 03:44:72
FILE "04. Sonatine (1947).wav" WAVE
INDEX 01 00:00:00
TRACK 05 AUDIO
TITLE "Musique de concert (1955): Toccata"
PERFORMER "Jean-Yves Fourmeau & Hiroshi Nagao"
INDEX 00 07:50:55
FILE "05. Musique de concert (1955). Toccata.wav" WAVE
INDEX 01 00:00:00
TRACK 06 AUDIO
TITLE "Musique de concert (1955): Aria"
PERFORMER "Jean-Yves Fourmeau & Hiroshi Nagao"
INDEX 00 01:32:00
FILE "06. Musique de concert (1955). Aria.wav" WAVE
INDEX 01 00:00:00
TRACK 07 AUDIO
TITLE "Musique de concert (1955): Ostinato"
PERFORMER "Jean-Yves Fourmeau & Hiroshi Nagao"
INDEX 00 02:01:62
FILE "07. Musique de concert (1955). Ostinato.wav" WAVE
INDEX 01 00:00:00
TRACK 08 AUDIO
TITLE "Musique de concert (1955): Intermezzo"
PERFORMER "Jean-Yves Fourmeau & Hiroshi Nagao"
INDEX 00 01:43:08
FILE "08. Musique de concert (1955). Intermezzo.wav" WAVE
INDEX 01 00:00:00
TRACK 09 AUDIO
TITLE "Musique de concert (1955): Variazioni"
PERFORMER "Jean-Yves Fourmeau & Hiroshi Nagao"
INDEX 00 01:13:12
FILE "09. Musique de concert (1955). Variazioni.wav" WAVE
INDEX 01 00:00:00
TRACK 10 AUDIO
TITLE "Serenade (1957): Introduction"
PERFORMER "Jean-Yves Fourmeau & Hiroshi Nagao"
INDEX 00 02:35:03
FILE "10. Serenade (1957). Introduction.wav" WAVE
INDEX 01 00:00:00
FILE "11. Serenade (1957). Divertissement.wav" WAVE
TRACK 11 AUDIO
TITLE "Serenade (1957): Divertissement"
PERFORMER "Jean-Yves Fourmeau & Hiroshi Nagao"
INDEX 01 00:00:00
TRACK 12 AUDIO
TITLE "Serenade (1957): Serenade"
PERFORMER "Jean-Yves Fourmeau & Hiroshi Nagao"
INDEX 00 03:31:40
FILE "12. Serenade (1957). Serenade.wav" WAVE
INDEX 01 00:00:00
FILE "13. Serenade (1957). Finale.wav" WAVE
TRACK 13 AUDIO
TITLE "Serenade (1957): Finale"
PERFORMER "Jean-Yves Fourmeau & Hiroshi Nagao"
INDEX 01 00:00:00
TRACK 14 AUDIO
TITLE "Lamento et rondo (1973): Lamento"
PERFORMER "Jean-Yves Fourmeau & Hiroshi Nagao"
INDEX 00 03:12:00
FILE "14. Lamento et rondo (1973). Lamento.wav" WAVE
INDEX 01 00:00:00
TRACK 15 AUDIO
TITLE "Lamento et rondo (1973): Rondo"
PERFORMER "Jean-Yves Fourmeau & Hiroshi Nagao"
INDEX 00 03:31:43
FILE "15. Lamento et rondo (1973). Rondo.wav" WAVE
INDEX 01 00:00:00
TRACK 16 AUDIO
TITLE "Fantaisie (1984)"
PERFORMER "Jean-Yves Fourmeau & Hiroshi Nagao"
INDEX 00 03:48:15
FILE "16. Fantaisie (1984).wav" WAVE
INDEX 01 00:00:00



Показать сообщения:    

Текущее время: 08-Дек 03:12

Часовой пояс: UTC + 3


Вы не можете начинать темы
Вы не можете отвечать на сообщения
Вы не можете редактировать свои сообщения
Вы не можете удалять свои сообщения
Вы не можете голосовать в опросах
Вы не можете прикреплять файлы к сообщениям
Вы не можете скачивать файлы