[TR24][OF] Ludwig van Beethoven: Symphonies Nos. 4, 5 & 6 - Wiener Philharmoniker, Christian Thielemann - 2011/2015 (Classical)


Статистика раздачи [Обновить пиров]
Размер:  1.09 GB   |    Зарегистрирован:  8 месяцев 20 дней   |    Скачан:  0 раз

Полного источника не было: Никогда

 
   
 
 
 

[Цитировать]

Ludwig van Beethoven
Symphonies Nos. 4, 5 & 6
Wiener Philharmoniker · Christian Thielemann
-Год издания/переиздания: 2011/2015 | Жанр: Classical
Издатель: Sony Classical | Продолжительность: 01:56:32
Наличие сканов: Sleeve- -Wiener Philharmoniker
Christian Thielemann, conductor
Recorded: Wiener Musikverein; No. 4: March 2009; Nos. 5-6: April 2010-Контейнер: FLAC (*.flac) | Тип рипа: tracks
Разрядность: 24bit / 48kHz | Количество каналов: 2.0
-Треклист
Ludwig van Beethoven (1770-1827)
CD 1
Symphony No. 4 in B-Flat Major, Op. 60
01. I. Adagio - Allegro vivace (12:52)
02. II. Adagio (11:13)
03. III. Allegro vivace - Un poco meno allegro (5:36)
04. IV. Allegro ma non troppo (7:09)
Symphony No. 5 in C Minor, Op. 67
05. I. Allegro con brio (7:32)
06. II. Andante con moto (10:46)
07. III. Scherzo. Allegro (5:37)
08. IV. Allegro (10:18)
CD 2
Symphony No. 6 in F Major, Op. 68 "Pastoral"
01. I. Erwachen heiterer Empfindungen bei der Ankunft auf dem Lande - Allegro ma non troppo (12:53)
02. II. Szene am Bach - Andante molto moto (13:15)
03. III. Lustiges Zusammensein der Landleute - Allegro (5:25)
04. IV. Gewitter-Sturm - Allegro (3:46)
05. V. Hirtengesang. Frohe und dankbare Gefühle nach dem Sturm - Allegretto (10:10)

О релизе


At a time when it seems that the contemporary movement for historically informed practices has won over most performers of Ludwig van Beethoven's nine symphonies, along comes Christian Thielemann to spin the clock back to the mindset of the mid-20th century. Interpreting the symphonies with a conventional, even hidebound, approach that bears no sign of late Classical scholarship (streamlined tempos, smaller orchestras, original instrumentation, or other aspects of the way the music was actually played in the composer's time), Thielemann presents a Beethoven that is rather more in the manner of Wilhelm Furtwängler than of, say, John Eliot Gardiner. Listeners who have not yet taken the plunge into authentic period practices may have wondered where the traditionalist could turn for old-fashioned, Teutonic performances that employ a full modern orchestra, conform to expected (i.e., slower) tempos, and generally have a homogenized orchestral blend with thick textures. Here is Thielemann, unapologetic and confident, and for what it is, his set is a solid, dependable cycle that doesn't pretend to be something it isn't, and it will not disappoint its intended audience. Indeed, the Vienna Philharmonic is one of the last bastions of tradition, and Thielemann surely will satisfy all who are nostalgic for the old style. There are some eccentricities of particular interest in the Finale of the Ninth, where Thielemann surprises with sneak-attack accelerandos, and his breakneck speed in the final pages will leave anyone breathless. But on the whole, this is a conservative's vision of Beethoven, and the live performances really bring the not-so-distant past to life. This deluxe box set offers six CDs and a DVD, Making van Beethoven, stored in a hard cover book with liner notes and a cloth-covered slipcase. --Blair Sanderson

ОтчётыДинамический диапазон

CD 1
foobar2000 1.3.8 / Dynamic Range Meter 1.1.1
log date: 2015-07-03 00:18:11
--------------------------------------------------------------------------------
Analyzed: Christian Thielemann, Wiener Philharmoniker / Beethoven: Symphonies Nos. 4, 5 & 6
--------------------------------------------------------------------------------
DR Peak RMS Duration Track
--------------------------------------------------------------------------------
DR14 -3.66 dB -23.60 dB 12:52 01-Symphony No. 4 in B-Flat Major, Op. 60 - I. Adagio - Allegro vivace
DR15 -6.04 dB -27.94 dB 11:13 02-Symphony No. 4 in B-Flat Major, Op. 60 - II. Adagio
DR13 -5.61 dB -24.53 dB 5:36 03-Symphony No. 4 in B-Flat Major, Op. 60 - III. Allegro vivace - Un poco meno allegro
DR13 -4.21 dB -23.47 dB 7:09 04-Symphony No. 4 in B-Flat Major, Op. 60 - IV. Allegro ma non troppo
DR13 -1.09 dB -19.62 dB 7:32 05-Symphony No. 5 in C Minor, Op. 67 - I. Allegro con brio
DR13 -2.83 dB -23.15 dB 10:46 06-Symphony No. 5 in C Minor, Op. 67 - II. Andante con moto
DR13 -2.31 dB -23.63 dB 5:37 07-Symphony No. 5 in C Minor, Op. 67 - III. Scherzo. Allegro
DR13 -0.50 dB -16.92 dB 10:18 08-Symphony No. 5 in C Minor, Op. 67 - IV. Allegro
--------------------------------------------------------------------------------
Number of tracks: 8
Official DR value: DR13
Samplerate: 48000 Hz
Channels: 2
Bits per sample: 24
Bitrate: 1492 kbps
Codec: FLAC
================================================================================
CD 2
foobar2000 1.3.8 / Dynamic Range Meter 1.1.1
log date: 2015-07-03 00:19:29
--------------------------------------------------------------------------------
Analyzed: Christian Thielemann, Wiener Philharmoniker / Beethoven: Symphonies Nos. 4, 5 & 6
--------------------------------------------------------------------------------
DR Peak RMS Duration Track
--------------------------------------------------------------------------------
DR13 -3.43 dB -22.63 dB 12:53 01-Symphony No. 6 in F Major, Op. 68 "Pastoral" - I. Erwachen heiterer Empfindungen bei der Ankunft auf dem Lande - Allegro ma non troppo
DR14 -8.50 dB -28.22 dB 13:15 02-Symphony No. 6 in F Major, Op. 68 "Pastoral" - II. Szene am Bach - Andante molto moto
DR12 -5.16 dB -21.73 dB 5:25 03-Symphony No. 6 in F Major, Op. 68 "Pastoral" - III. Lustiges Zusammensein der Landleute - Allegro
DR13 -0.50 dB -19.30 dB 3:46 04-Symphony No. 6 in F Major, Op. 68 "Pastoral" - IV. Gewitter-Sturm - Allegro
DR12 -2.97 dB -21.10 dB 10:10 05-Symphony No. 6 in F Major, Op. 68 "Pastoral" - V. Hirtengesang. Frohe und dankbare Gefühle nach dem Sturm - Allegretto
--------------------------------------------------------------------------------
Number of tracks: 5
Official DR value: DR13
Samplerate: 48000 Hz
Channels: 2
Bits per sample: 24
Bitrate: 1379 kbps
Codec: FLAC
================================================================================

Скриншот спектра частот

Доп. информация

При скачивании, если необходимо, переименуйте папку, в которой будет находиться альбомБольшая просьба к скачавшим поддерживать раздачу! Помогайте другим, ведь вам тоже может понадобиться помощь!Не забываем говорить "Спасибо"!Комментарии приветствуются!
Christian Thielemann Hi-Res
[teatrix.ru].t21622.torrent 
Торрент: Зарегистрирован [ 2016-03-20 12:44 ] · 6F91F2BCD36C73DE943290905B04D70C755AD81C

Скачать .torrent

Скачать

13 KB

Статус: проверено
Скачан: 0 раз
Размер: 1.09 GB
terms.php



Быстрый ответ

Имя:

      
Для отправки сообщений необходимо включить JavaScript
Показать сообщения:    

Текущее время: 09-Дек 20:28

Часовой пояс: UTC + 3


Вы можете начинать темы
Вы можете отвечать на сообщения
Вы не можете редактировать свои сообщения
Вы не можете удалять свои сообщения
Вы не можете голосовать в опросах
Вы не можете прикреплять файлы к сообщениям
Вы можете скачивать файлы