[TR24][OF] Ludwig van Beethoven: Symphonies Nos. 7, 8 & 9 - Wiener Philharmoniker, Christian Thielemann - 2011/2015 (Classical)


Статистика раздачи [Обновить пиров]
Размер:  1.31 GB   |    Зарегистрирован:  8 месяцев 21 день   |    Скачан:  0 раз

Полного источника не было: Никогда

 
   
 
 
 

[Цитировать]

Ludwig van Beethoven
Symphonies Nos. 7, 8 & 9
Wiener Philharmoniker · Christian Thielemann
-Год издания/переиздания: 2011/2015 | Жанр: Classical
Издатель: Sony Classical | Продолжительность: 02:16:55
Наличие сканов: Sleeve- -Wiener Philharmoniker
Christian Thielemann, conductor
Recorded: Wiener Musikverein; Nos. 7-8: November 2009; No. 9: April 2010-Контейнер: FLAC (*.flac) | Тип рипа: tracks
Разрядность: 24bit / 48kHz | Количество каналов: 2.0
-Треклист
Ludwig van Beethoven (1770-1827)
CD 1
Symphony No. 7 in A Major, Op. 92
01. I. Poco sostenuto - Vivace (12:34)
02. II. Allegretto (9:19)
03. III. Presto (8:08)
04. IV. Allegro con brio (6:57)
Symphony No. 8 in F Major, Op. 93
05. I. Allegro vivace e con brio (10:23)
06. II. Allegretto scherzando (4:15)
07. III. Tempo di Menuetto (5:25)
08. IV. Allegro vivace (7:46)
CD 2
Symphony No. 9 in D Minor, Op. 125 "Choral"
01. I. Allegro ma non troppo, un poco maestoso (17:12)
02. II. Molto vivace (13:03)
03. III. Adagio molto e cantabile (16:41)
04. IV. Presto - Allegro assai - Recitativo: "O Freunde, nicht diese Töne" (25:14)

О релизе


At a time when it seems that the contemporary movement for historically informed practices has won over most performers of Ludwig van Beethoven's nine symphonies, along comes Christian Thielemann to spin the clock back to the mindset of the mid-20th century. Interpreting the symphonies with a conventional, even hidebound, approach that bears no sign of late Classical scholarship (streamlined tempos, smaller orchestras, original instrumentation, or other aspects of the way the music was actually played in the composer's time), Thielemann presents a Beethoven that is rather more in the manner of Wilhelm Furtwängler than of, say, John Eliot Gardiner. Listeners who have not yet taken the plunge into authentic period practices may have wondered where the traditionalist could turn for old-fashioned, Teutonic performances that employ a full modern orchestra, conform to expected (i.e., slower) tempos, and generally have a homogenized orchestral blend with thick textures. Here is Thielemann, unapologetic and confident, and for what it is, his set is a solid, dependable cycle that doesn't pretend to be something it isn't, and it will not disappoint its intended audience. Indeed, the Vienna Philharmonic is one of the last bastions of tradition, and Thielemann surely will satisfy all who are nostalgic for the old style. There are some eccentricities of particular interest in the Finale of the Ninth, where Thielemann surprises with sneak-attack accelerandos, and his breakneck speed in the final pages will leave anyone breathless. But on the whole, this is a conservative's vision of Beethoven, and the live performances really bring the not-so-distant past to life. This deluxe box set offers six CDs and a DVD, Making van Beethoven, stored in a hard cover book with liner notes and a cloth-covered slipcase. --Blair Sanderson

ОтчётыДинамический диапазон

CD 1
foobar2000 1.3.8 / Dynamic Range Meter 1.1.1
log date: 2015-07-03 00:42:47
--------------------------------------------------------------------------------
Analyzed: Christian Thielemann, Wiener Philharmoniker / Beethoven: Symphonies Nos. 7, 8 & 9
--------------------------------------------------------------------------------
DR Peak RMS Duration Track
--------------------------------------------------------------------------------
DR14 -1.79 dB -20.60 dB 12:34 01-Symphony No. 7 in A Major, Op. 92 - I. Poco sostenuto - Vivace
DR14 -3.17 dB -25.45 dB 9:19 02-Symphony No. 7 in A Major, Op. 92 - II. Allegretto
DR12 -3.26 dB -21.43 dB 8:08 03-Symphony No. 7 in A Major, Op. 92 - III. Presto
DR13 -0.50 dB -18.36 dB 6:57 04-Symphony No. 7 in A Major, Op. 92 - IV. Allegro con brio
DR14 -0.89 dB -20.82 dB 10:23 05-Symphony No. 8 in F Major, Op. 93 - I. Allegro vivace e con brio
DR15 -8.10 dB -28.15 dB 4:15 06-Symphony No. 8 in F Major, Op. 93 - II. Allegretto scherzando
DR13 -5.97 dB -23.71 dB 5:25 07-Symphony No. 8 in F Major, Op. 93 - III. Tempo di Menuetto
DR13 -2.46 dB -20.74 dB 7:46 08-Symphony No. 8 in F Major, Op. 93 - IV. Allegro vivace
--------------------------------------------------------------------------------
Number of tracks: 8
Official DR value: DR13
Samplerate: 48000 Hz
Channels: 2
Bits per sample: 24
Bitrate: 1410 kbps
Codec: FLAC
================================================================================
CD 2
foobar2000 1.3.8 / Dynamic Range Meter 1.1.1
log date: 2015-07-03 00:43:57
--------------------------------------------------------------------------------
Analyzed: Christian Thielemann, Wiener Philharmoniker / Beethoven: Symphonies Nos. 7, 8 & 9
--------------------------------------------------------------------------------
DR Peak RMS Duration Track
--------------------------------------------------------------------------------
DR14 -0.50 dB -20.15 dB 17:12 01-Symphony No. 9 in D Minor, Op. 125 "Choral" - I. Allegro ma non troppo, un poco maestoso
DR14 -0.81 dB -22.38 dB 13:03 02-Symphony No. 9 in D Minor, Op. 125 "Choral" - II. Molto vivace
DR18 -1.89 dB -28.07 dB 16:41 03-Symphony No. 9 in D Minor, Op. 125 "Choral" - III. Adagio molto e cantabile
DR14 -0.50 dB -19.77 dB 25:14 04-Symphony No. 9 in D Minor, Op. 125 "Choral" - IV. Presto - Allegro assai - Recitativo: "O Freunde, nicht diese Töne"
--------------------------------------------------------------------------------
Number of tracks: 4
Official DR value: DR15
Samplerate: 48000 Hz
Channels: 2
Bits per sample: 24
Bitrate: 1399 kbps
Codec: FLAC
================================================================================

Скриншот спектра частот

Доп. информация

При скачивании, если необходимо, переименуйте папку, в которой будет находиться альбомБольшая просьба к скачавшим поддерживать раздачу! Помогайте другим, ведь вам тоже может понадобиться помощь!Не забываем говорить "Спасибо"!Комментарии приветствуются!
Christian Thielemann Hi-Res
[teatrix.ru].t21624.torrent 
Торрент: Зарегистрирован [ 2016-03-20 12:44 ] · BB5FDA1F5A444A5FFDF6F082310BFEBA85A3B830

Скачать .torrent

Скачать

15 KB

Статус: проверено
Скачан: 0 раз
Размер: 1.31 GB
terms.php



Быстрый ответ

Имя:

      
Для отправки сообщений необходимо включить JavaScript
Показать сообщения:    

Текущее время: 11-Дек 09:11

Часовой пояс: UTC + 3


Вы можете начинать темы
Вы можете отвечать на сообщения
Вы не можете редактировать свои сообщения
Вы не можете удалять свои сообщения
Вы не можете голосовать в опросах
Вы не можете прикреплять файлы к сообщениям
Вы можете скачивать файлы