(Classical / Symphony / Orchestral) Paul Dukas - La Peri • Symphonie en ut majeur / Поль Дюка - Пери • Симфония до мажор (Orchestre de la Suisse Romande, Armin Jordan, 1984) - 1985, FLAC (tracks+.cue) lossless


 

[Цитировать]

Paul Dukas | Поль Дюка
(1865–1935)



La Péri | Symphonie en ut majeur
Пери | Симфония до мажор


Orchestre de la Suisse Romande
Armin Jordan conductor


Жанр: Classical / Orchestral / Symphony
Дата и место записи: Victoria Hall, Genèva, May 1984
Формат записи: DDD, Stereo
Год издания диска: 1985
Издатель (лейбл): Erato
Номер по каталогу: 2292-45221-2
Аудиокодек: FLAC
Тип рипа: tracks+.cue
Битрейт аудио: lossless
Продолжительность: 1:02:24
Наличие сканов в содержимом раздачи: да (front/back)
Источник: What.CD
Релизёр: Dmnik


Tracklist / Треклист
Fanfare pour précéder «La Péri» - 2:14
  • «La Péri», poème dansé en un tableau - 19:26
    Symphonie en ut majeur - 40:44
    I. Allegro non troppo vivace, ma con fuoco - 14:59
  • II. Andante espressivo e sostenuto - 14:39
  • III. Allegro spiritoso - 11:07

    -

    EAC log / Отчёт EAC

    Exact Audio Copy V1.0 beta 3 from 29. August 2011
    EAC extraction logfile from 22. May 2014, 9:21
    Orchestre De La Suisse Romande, Armin Jordan / La Péri / Symphonie en Ut Majeur
    Used drive : HL-DT-STDVDRAM GSA-T20N Adapter: 0 ID: 0
    Read mode : Secure
    Utilize accurate stream : Yes
    Defeat audio cache : Yes
    Make use of C2 pointers : No
    Read offset correction : 667
    Overread into Lead-In and Lead-Out : No
    Fill up missing offset samples with silence : Yes
    Delete leading and trailing silent blocks : No
    Null samples used in CRC calculations : Yes
    Used interface : Native Win32 interface for Win NT & 2000
    Gap handling : Appended to previous track
    Used output format : User Defined Encoder
    Selected bitrate : 1024 kBit/s
    Quality : High
    Add ID3 tag : No
    Command line compressor : C:\Program Files (x86)\Exact Audio Copy\Flac\flac.exe
    Additional command line options : -8 -V -T "ARTIST=%artist%" -T "TITLE=%title%" -T "ALBUM=%albumtitle%" -T "DATE=%year%" -T "TRACKNUMBER=%tracknr%" -T "GENRE=%genre%" -T "PERFORMER=%albuminterpret%" -T "COMPOSER=%composer%" %haslyrics%--tag-from-file=LYRICS="%lyricsfile%"%haslyrics% -T "ALBUMARTIST=%albumartist%" -T "DISCNUMBER=%cdnumber%" -T "TOTALDISCS=%totalcds%" -T "TOTALTRACKS=%numtracks%" -T "COMMENT=%comment%" %source% -o %dest%
    TOC of the extracted CD
    Track | Start | Length | Start sector | End sector
    ---------------------------------------------------------
    1 | 0:00.00 | 2:13.70 | 0 | 10044
    2 | 2:13.70 | 19:25.45 | 10045 | 97464
    3 | 21:39.40 | 14:58.70 | 97465 | 164884
    4 | 36:38.35 | 14:38.45 | 164885 | 230779
    5 | 51:17.05 | 11:06.60 | 230780 | 280789
    Track 1
    Filename A:\Ripping\Paul Dukas - La Péri, Symphonie en Ut Majeur {Armin Jordan} (1985) [FLAC]\01 La Péri- Fanfare.wav
    Pre-gap length 0:00:02.00
    Peak level 99.9 %
    Extraction speed 2.1 X
    Track quality 100.0 %
    Test CRC 657F7609
    Copy CRC 657F7609
    Accurately ripped (confidence 2) [17B598FC] (AR v2)
    Copy OK
    Track 2
    Filename A:\Ripping\Paul Dukas - La Péri, Symphonie en Ut Majeur {Armin Jordan} (1985) [FLAC]\02 La Péri- La Péri.wav
    Peak level 100.0 %
    Extraction speed 3.3 X
    Track quality 100.0 %
    Test CRC B6E6CE14
    Copy CRC B6E6CE14
    Accurately ripped (confidence 2) [27CC917E] (AR v2)
    Copy OK
    Track 3
    Filename A:\Ripping\Paul Dukas - La Péri, Symphonie en Ut Majeur {Armin Jordan} (1985) [FLAC]\03 Symphonie en Ut Majeur- 1. Allegro non troppo vivace, ma con fuoco.wav
    Pre-gap length 0:00:09.73
    Peak level 96.4 %
    Extraction speed 4.1 X
    Track quality 100.0 %
    Test CRC E4F9C7CC
    Copy CRC E4F9C7CC
    Accurately ripped (confidence 2) [38C4467A] (AR v2)
    Copy OK
    Track 4
    Filename A:\Ripping\Paul Dukas - La Péri, Symphonie en Ut Majeur {Armin Jordan} (1985) [FLAC]\04 Symphonie en Ut Majeur- 2. Andante espressivo e sostenuto.wav
    Pre-gap length 0:00:06.93
    Peak level 68.8 %
    Extraction speed 4.5 X
    Track quality 99.9 %
    Test CRC 7A84444A
    Copy CRC 7A84444A
    Accurately ripped (confidence 2) [FC164646] (AR v2)
    Copy OK
    Track 5
    Filename A:\Ripping\Paul Dukas - La Péri, Symphonie en Ut Majeur {Armin Jordan} (1985) [FLAC]\05 Symphonie en Ut Majeur- 3. Allegro spiritoso.wav
    Pre-gap length 0:00:04.70
    Peak level 96.1 %
    Extraction speed 5.1 X
    Track quality 100.0 %
    Test CRC B2C8D77F
    Copy CRC B2C8D77F
    Accurately ripped (confidence 2) [1FC9313C] (AR v2)
    Copy OK
    All tracks accurately ripped
    No errors occurred
    End of status report
    ---- CUETools DB Plugin V2.1.3
    [CTDB TOCID: fE4fNYWKXWvUG61Pslnb4IayHKg-] found, Submit result: fE4fNYWKXWvUG61Pslnb4IayHKg- has been confirmed
    [0f1b7636] (1/1) Accurately ripped
    ==== Log checksum CCEE7AACBF0AA16B7E38DAF969766760CFDAD5121596CB55220D1CCE5173FE3B ====

    auCDtect Task Manager log / Отчёт auCDtect Task Manager

    -----------------------
    DON'T MODIFY THIS FILE
    -----------------------
    PERFORMER: auCDtect Task Manager, ver. 1.5.1RC3 build 1.5.1.4
    Copyright (c) 2008-2010 y-soft. All rights reserved
    ANALYZER: auCDtect: CD records authenticity detector, version 0.8.2
    Copyright (c) 2004 Oleg Berngardt. All rights reserved.
    Copyright (c) 2004 Alexander Djourik. All rights reserved.
    FILE: 02 - ''La Peri'', poeme danse en un tableau.flac
    Size: 87289515 Hash: 64967AB8FF227435685822559DBB52F9 Accuracy: -m0
    Conclusion: CDDA 100%
    Signature: DF58E03BB848330E2FD42596A6B79A1709B93136
    FILE: 01 - Fanfare pour preceder ''La Peri''.flac
    Size: 11575141 Hash: ED6E0BBE49A2792236C6CDFD52E3D1CC Accuracy: -m0
    Conclusion: CDDA 100%
    Signature: E5C3748ABB8193B0EA89FF4A489F23A03657BE49
    FILE: 05 - Symphonie en ut majeur - III. Allegro spiritoso.flac
    Size: 56396985 Hash: 77F54B59B855E41538AA6FB5F416745E Accuracy: -m0
    Conclusion: CDDA 99%
    Signature: EA53AFA74C688D0F74EEEDD18511DD1886A90883
    FILE: 04 - Symphonie en ut majeur - II. Andante espressivo e sostenuto.flac
    Size: 56093119 Hash: EE38713A9E28742AD55B450D32BBFFBD Accuracy: -m0
    Conclusion: CDDA 100%
    Signature: 82D9FBC6FACF844E058FF5995B39AA7925CA4661
    FILE: 03 - Symphonie en ut majeur - I. Allegro non troppo vivace, ma con fuoco.flac
    Size: 70460967 Hash: 494EC27773464B1428ED6626C7A06EA7 Accuracy: -m0
    Conclusion: CDDA 100%
    Signature: 4289BECFDF0EF6C68C6DF5E784A98327448A46A1

    CUETools log / Отчёт CUETools

    [CUETools log; Date: 03.07.2015 13:06:18; Version: 2.1.4]
    [AccurateRip ID: 000bf65d-003a256a-270e9f05] found.
    Track [ CRC | V2 ] Status
    01 [43f7ee71|17b598fc] (0+2/2) Accurately ripped
    02 [99e6ba2c|27cc917e] (0+2/2) Accurately ripped
    03 [32bb0597|38c4467a] (0+2/2) Accurately ripped
    04 [67b156de|fc164646] (0+2/2) Accurately ripped
    05 [080cc081|1fc9313c] (0+2/2) Accurately ripped
    Track Peak [ CRC32 ] [W/O NULL] [ LOG ]
    -- 100,0 [F3F4F729] [A8C76A82]
    01 99,9 [657F7609] [F7BF0022] CRC32
    02 100,0 [B6E6CE14] [792AE451] CRC32
    03 96,4 [E4F9C7CC] [0F69328C] CRC32
    04 68,8 [7A84444A] [A2ADBF0C] CRC32
    05 96,1 [B2C8D77F] [66EE0C67] CRC32

    CUE sheet

    TITLE "Paul Dukas: La Péri • Symphonie en ut majeur"
    PERFORMER "Armin Jordan"
    REM GENRE Classical
    REM DISCID 270E9F05
    REM COMMENT "ExactAudioCopy v1.0b3"
    CATALOG 2292452210207
    FILE "01 - Fanfare pour preceder ''La Peri''.flac" WAVE
    TRACK 01 AUDIO
    TITLE "Fanfare pour précéder «La Péri»"
    PERFORMER "Orchestre de la Suisse Romande. Armin Jordan, conductor"
    REM DATE 1984
    INDEX 01 00:00:00
    FILE "02 - ''La Peri'', poeme danse en un tableau.flac" WAVE
    TRACK 02 AUDIO
    TITLE "«La Péri», poème dansé en un tableau"
    PERFORMER "Orchestre de la Suisse Romande. Armin Jordan, conductor"
    REM DATE 1984
    INDEX 01 00:00:00
    TRACK 03 AUDIO
    TITLE "Symphonie en ut majeur: I. Allegro non troppo vivace, ma con fuoco"
    PERFORMER "Orchestre de la Suisse Romande. Armin Jordan, conductor"
    REM DATE 1984
    INDEX 00 19:15:65
    FILE "03 - Symphonie en ut majeur - I. Allegro non troppo vivace, ma con fuoco.flac" WAVE
    INDEX 01 00:00:00
    TRACK 04 AUDIO
    TITLE "Symphonie en ut majeur: II. Andante espressivo e sostenuto"
    PERFORMER "Orchestre de la Suisse Romande. Armin Jordan, conductor"
    REM DATE 1984
    INDEX 00 14:52:00
    FILE "04 - Symphonie en ut majeur - II. Andante espressivo e sostenuto.flac" WAVE
    INDEX 01 00:00:00
    TRACK 05 AUDIO
    TITLE "Symphonie en ut majeur: III. Allegro spiritoso"
    PERFORMER "Orchestre de la Suisse Romande. Armin Jordan, conductor"
    REM DATE 1984
    INDEX 00 14:33:67
    FILE "05 - Symphonie en ut majeur - III. Allegro spiritoso.flac" WAVE
    INDEX 01 00:00:00
    -



  • Показать сообщения:    

    Текущее время: 05-Дек 03:30

    Часовой пояс: UTC + 3


    Вы не можете начинать темы
    Вы не можете отвечать на сообщения
    Вы не можете редактировать свои сообщения
    Вы не можете удалять свои сообщения
    Вы не можете голосовать в опросах
    Вы не можете прикреплять файлы к сообщениям
    Вы не можете скачивать файлы