[TR24][OF] J.S. Bach: The Cello Suites, BWV 1007-1012 - David Watkin - 2015 (Classical)


Статистика раздачи [Обновить пиров]
Размер:  2.47 GB   |    Зарегистрирован:  8 месяцев 15 дней   |    Скачан:  1 раз

Полного источника не было: 1 месяц 7 дней

 
   
 
 
 

[Цитировать]

J.S. Bach
Cello Suites, BWV 1007-1012
-Год издания: 2015 | Жанр: Classical
Издатель: Resonus | Продолжительность: 02:24:58
Наличие сканов: Sleeve, Digital Booklet- -David Watkin, baroque cello
Recorded in The Robin Chapel, Edinburgh
on 26 March, 19 June, 21-22 June & 10-12 December 2013
-Контейнер: FLAC (*.flac) | Тип рипа: tracks
Разрядность: 24bit / 96kHz | Количество каналов: 2.0
-Треклист
Johann Sebastian Bach (1685-1750)
Suite No. 1 in G major, BWV1007
01.I. Prelude (2:15)
02. II. Allemande (4:40)
03. III. Courante (2:42)
04. IV. Sarabande (2:51)
05. V. Menuet I, II (3:48)
06. VI. Gigue (1:43)
Suite No. 3 in C major, BWV1009
07. I. Prelude (3:01)
08. II. Allemande (4:14)
09. III. Courante (3:08)
10. IV. Sarabande (4:37)
11. V. Bouree I, II (4:00)
12. VI. Gigue (3:15)
Suite No. 5 in C minor, BWV 1011
13. I. Prelude (6:37)
14. II. Allemande (7:09)
15. III. Courante (2:36)
16. IV. Sarabande (3:39)
17. V. Gavotte I, II (5:34)
18. VI. Gigue (2:29)
Suite No. 2 in D minor, BWV 1008
19. I. Prelude (3:19)
20. II. Allemande (3:40)
21. III. Courante (2:04)
22. IV. Sarabande (5:13)
23. V. Menuet I, II (4:01)
24. VI. Gigue (2:55)
Suite No. 4 in E flat major, BWV 1010
25. I. Prelude (3:28)
26. II. Allemande (4:05)
27. III. Courante (3:25)
28. IV. Sarabande (3:41)
29. V. Bourree I, II (6:24)
30. VI. Gigue (2:50)
Suite No. 6 in D major, BWV 1012
31. I. Prelude (4:56)
32. II. Allemande (8:49)
33. III. Courante (3:43)
34. IV. Sarabande (4:59)
35. V. Gavotte I, II (4:56)
36. VI. Gigue (4:14)

О релизе


Renowned cellist and interpreter of Baroque music David Watkin records the Cello Suites by J.S. Bach, rightly considered as the pinnacle of writing for solo cello. Juror of the Leipzig Bach Competition; former principal cellist of the Orchestre Révolutionnaire et Romantique & the English Baroque Soloists, as well as the cellist of the critically acclaimed Eroica Quartet, Watkin gives a captivating and truly individual account of the six suites, the result of decades of performing and studying these compelling and fascinating works.
The six Suites are recorded on gut strings and on two original historic instruments of note, including the unique five-string cello by Brothers Amati, dating from c. 1600, and a four-string by a likely pupil of Amati, Francesco Rugeri, dating from c. 1670.
„From first hearing the Toccata and Fugue in d minor as a child, to taking part in the Bach Cantata Pilgrimage in 2000 and sitting on the Jury at the Leipzig Bach Competition in 2012, Bach has always had a special place in my life. But 2013 is turning out to be a ‘Bach year’ for me. A few weeks ago I took part in Sir John Eliot Gardiner’s TV programme (which will be broadcast at Easter by the BBC). I recorded the G major Prelude and gave some interviews, but more importantly it was a great chance to catch up with some of the other participants from the incredible Bach Cantata Pilgrimage 2000. Also in Cantata 68, there was a chance to try out the Royal Academy of Music’s beautiful 5 string Amati cello which belonged to one of my teachers, Amarylis Fleming. It’s an astonishing instrument, and I’m very excited to be using it for the 6th Suite later this year.
Earlier this year I conducted the 3rd and 4th Orchestral Suites at the Guildhall School of Music and Drama in London, with their Baroque Orchestra – every one of them ready to risk everything for the music! Then it was Webern’s arrangement of the Ricercar in 6 parts from the Musical Offering with SCO and Robin Ticciati. In the Summer there is a late night Prom with EBS/Gardiner, and in the run up to Christmas I’m performing the 6th Suite at Queen’s Hall and then conducting Cantata 110 Unser Mund sei Voll Lachens in a concert with Manchester Consort.
But my main focus in 2013 will be a recording for Resonus Classics of all 6 Suites, which will happen in two chunks, Spring and Winter. In preparation, I will be putting on as many performances of the Suites as possible, as well as introducing and exploring them at various events.
Having performed the Suites at very special places in Bach's life - sitting by the font in which he was baptised in Eisenach and at Frederick the Great's Palace in Potsdam - it was a pleasure to play the First Suite recently at Leighton House in London. Alfredo Piatti was a regular performer at 'Musics' there, including perhaps some of the first performances of the Suites after Bach's lifetime.

ОтчётыДинамический диапазон

foobar2000 1.3.8 / Dynamic Range Meter 1.1.1
log date: 2015-07-03 14:46:08
--------------------------------------------------------------------------------
Analyzed: David Watkin / Bach: Cello Suites
--------------------------------------------------------------------------------
DR Peak RMS Duration Track
--------------------------------------------------------------------------------
DR11 -3.29 dB -19.79 dB 2:15 01-Suite No.1 in G major - I. Prelude
DR12 -4.82 dB -21.57 dB 4:40 02-Suite No.1 in G major - II. Allemande
DR11 -5.25 dB -20.98 dB 2:42 03-Suite No.1 in G major - III. Courante
DR12 -6.04 dB -22.45 dB 2:51 04-Suite No.1 in G major - IV. Sarabande
DR12 -7.34 dB -23.24 dB 3:48 05-Suite No.1 in G major - V. Menuet I, II
DR13 -6.81 dB -23.41 dB 1:43 06-Suite No.1 in G major - VI. Gigue
DR11 -3.03 dB -18.72 dB 3:01 07-Suite No.3 in C major - I. Prelude
DR12 -3.71 dB -20.14 dB 4:14 08-Suite No.3 in C major - II. Allemande
DR13 -2.49 dB -19.83 dB 3:08 09-Suite No.3 in C major - III. Courante
DR12 -4.79 dB -21.37 dB 4:37 10-Suite No.3 in C major - IV. Sarabande
DR13 -4.36 dB -21.91 dB 4:00 11-Suite No.3 in C major - V. Bouree I, II
DR11 -2.69 dB -19.01 dB 3:15 12-Suite No.3 in C major - VI. Gigue
DR12 -2.42 dB -20.53 dB 6:37 13-Suite No.5 in C minor - I. Prelude
DR13 -3.04 dB -22.12 dB 7:09 14-Suite No.5 in C minor - II. Allemande
DR11 -4.34 dB -19.26 dB 2:36 15-Suite No.5 in C minor - III. Courante
DR12 -4.90 dB -24.11 dB 3:39 16-Suite No.5 in C minor - IV. Sarabande
DR13 -4.12 dB -20.79 dB 5:34 17-Suite No.5 in C minor - V. Gavotte I, II
DR13 -2.22 dB -21.87 dB 2:29 18-Suite No.5 in C minor - VI. Gigue
DR12 -1.60 dB -19.15 dB 3:19 19-Suite No.2 in D minor - I. Prelude
DR12 -5.38 dB -21.37 dB 3:40 20-Suite No.2 in D minor - II. Allemande
DR13 -4.57 dB -20.97 dB 2:04 21-Suite No.2 in D minor - III. Courante
DR13 -3.06 dB -21.15 dB 5:13 22-Suite No.2 in D minor - IV. Sarabande
DR13 -4.37 dB -21.30 dB 4:01 23-Suite No.2 in D minor - V. Menuet I, II
DR12 -1.08 dB -19.72 dB 2:55 24-Suite No.2 in D minor - VI. Gigue
DR12 -4.97 dB -20.69 dB 3:28 25-Suite No.4 in E flat major - I. Prelude
DR12 -4.73 dB -20.90 dB 4:05 26-Suite No.4 in E flat major - II. Allemande
DR12 -6.10 dB -22.75 dB 3:25 27-Suite No.4 in E flat major - III. Courante
DR12 -4.50 dB -22.03 dB 3:41 28-Suite No.4 in E flat major - IV. Sarabande
DR14 -3.12 dB -20.92 dB 6:24 29-Suite No.4 in E flat major - V. Bourree I, II
DR12 -6.30 dB -21.67 dB 2:50 30-Suite No.4 in E flat major - VI. Gigue
DR14 -5.47 dB -23.17 dB 4:56 31-Suite No.6 in D major - I. Prelude
DR13 -8.59 dB -26.64 dB 8:49 32-Suite No.6 in D major - II. Allemande
DR13 -8.51 dB -24.91 dB 3:43 33-Suite No.6 in D major - III. Courante
DR13 -7.28 dB -25.29 dB 4:59 34-Suite No.6 in D major - IV. Sarabande
DR16 -4.38 dB -23.31 dB 4:56 35-Suite No.6 in D major - V. Gavotte I, II
DR14 -6.12 dB -23.47 dB 4:14 36-Suite No.6 in D major - VI. Gigue
--------------------------------------------------------------------------------
Number of tracks: 36
Official DR value: DR12
Samplerate: 96000 Hz
Channels: 2
Bits per sample: 24
Bitrate: 2366 kbps
Codec: FLAC
================================================================================

Скриншот спектра частот

Доп. информация

При скачивании, если необходимо, переименуйте папку, в которой будет находиться альбомБольшая просьба к скачавшим поддерживать раздачу! Помогайте другим, ведь вам тоже может понадобиться помощь!Не забываем говорить "Спасибо"!Комментарии приветствуются!
[teatrix.ru].t21627.torrent 
Торрент: Зарегистрирован [ 2016-03-20 12:45 ] · FD105833C49421E13B1A859ADA8A944B30B89A6D

Скачать .torrent

Скачать

16 KB

Статус: проверено
Скачан: 1 раз
Размер: 2.47 GB
terms.php



Быстрый ответ

Имя:

      
Для отправки сообщений необходимо включить JavaScript
Показать сообщения:    

Текущее время: 04-Дек 23:24

Часовой пояс: UTC + 3


Вы можете начинать темы
Вы можете отвечать на сообщения
Вы не можете редактировать свои сообщения
Вы не можете удалять свои сообщения
Вы не можете голосовать в опросах
Вы не можете прикреплять файлы к сообщениям
Вы можете скачивать файлы