(Classical / Orchestral) Paul Dukas - L'Apprenti sorcier • Polyeucte | Claude Debussy - La Boite a joujoux / Поль Дюка - Ученик чародея • Полиевкт | Клод Дебюсси - Ящик с игрушками (Armin Jordan, 1981/1984) - 1992, FLAC (tracks+.cue) lossless


 

[Цитировать]

Paul Dukas (1865–1935)
L'Apprenti sorcier | Polyeucte
Ученик чародея | Полиевкт


Claude Debussy (1862–1918)
La Boîte à joujoux
Ящик с игрушками


Nouvel Orchestre philharmonique
Basler Sinfonie-Orchester
Armin Jordan conductor


Жанр: Classical / Orchestral
Даты записи: 1981, 1984
Формат записи: ADD/DDD, Stereo
Год издания диска: 1992
Издатель (лейбл): Erato
Номер по каталогу: 2292-45819-2
Аудиокодек: FLAC
Тип рипа: tracks+.cue
Битрейт аудио: lossless
Продолжительность: 59:53
Наличие сканов в содержимом раздачи: да (front/back)
Источник: What.CD
Релизёр: ShotShot


Tracklist / Треклист
Paul Dukas
«L'Apprenti sorcier», scherzo symphonique d'après une ballade de Goethe - 11:48
  • «Polyeucte», ouverture pour la tragédie de Corneille - 15:51
    Nouvel Orchestre philharmonique
    Recorded: Radio France, Paris, November 1984

    Claude Debussy
    «La Boîte à joujoux», ballet pour marionnettes - 32:14
    Prélude: Le sommeil de la boîte - 2:30
  • Premier tableau: Le maison de jouets - 11:16
  • Deuxième tableau: Le champ de bataille - 9:09
  • Troisième tableau: La bergerie à vendre - 5:55
  • Quatrième tableau: Après fortune faite - 2:13
  • Épilogue - 1:10
    Basler Sinfonie-Orchester
    Recorded: Martinskirche, Basel, April 1981


    -

    EAC log / Отчёт EAC

    Exact Audio Copy V1.0 beta 3 from 29. August 2011
    EAC extraction logfile from 31. July 2012, 11:31
    Various / L'Apprenti Sorcier - Polyeucte - La Boîte à Joujoux
    Used drive : SlimtypeBD E DS4E1S Adapter: 0 ID: 2
    Read mode : Secure
    Utilize accurate stream : Yes
    Defeat audio cache : Yes
    Make use of C2 pointers : No
    Read offset correction : 6
    Overread into Lead-In and Lead-Out : No
    Fill up missing offset samples with silence : Yes
    Delete leading and trailing silent blocks : No
    Null samples used in CRC calculations : Yes
    Used interface : Native Win32 interface for Win NT & 2000
    Gap handling : Appended to previous track
    Used output format : User Defined Encoder
    Selected bitrate : 896 kBit/s
    Quality : High
    Add ID3 tag : No
    Command line compressor : C:\Users\HotShot\Utilities\flac.exe
    Additional command line options : -8 -V -T "ARTIST=%artist%" -T "TITLE=%title%" -T "ALBUM=%albumtitle%" -T "DATE=%year%" -T "TRACKNUMBER=%tracknr1%" -T "GENRE=%genre%" -T "PERFORMER=%albuminterpret%" -T "COMPOSER=%composer%" %haslyrics%--tag-from-file=LYRICS="%lyricsfile%"%haslyrics% -T "ALBUMARTIST=%albumartist%" -T "DISCNUMBER=%cdnumber%" -T "TOTALDISCS=%totalcds%" -T "TOTALTRACKS=%numtracks%" -T "COMMENT=%comment%" %source% -o %dest%
    TOC of the extracted CD
    Track | Start | Length | Start sector | End sector
    ---------------------------------------------------------
    1 | 0:00.00 | 11:48.05 | 0 | 53104
    2 | 11:48.05 | 15:51.02 | 53105 | 124431
    3 | 27:39.07 | 2:30.15 | 124432 | 135696
    4 | 30:09.22 | 11:16.35 | 135697 | 186431
    5 | 41:25.57 | 9:08.73 | 186432 | 227604
    6 | 50:34.55 | 5:55.25 | 227605 | 254254
    7 | 56:30.05 | 2:13.27 | 254255 | 264256
    8 | 58:43.32 | 1:09.55 | 264257 | 269486
    Track 1
    Filename D:\Downloads\µTorrent\Releases\Various - 1992 - L'Apprenti Sorcier, Polyeucte, La Boîte à Joujoux - FLAC\01 - Paul Dukas - L'apprenti Sorcier.wav
    Pre-gap length 0:00:02.00
    Peak level 86.4 %
    Extraction speed 1.4 X
    Track quality 100.0 %
    Test CRC BEB81EA3
    Copy CRC BEB81EA3
    Cannot be verified as accurate (confidence 1) [0F18C3FB], AccurateRip returned [9F69284F] (AR v2)
    Copy OK
    Track 2
    Filename D:\Downloads\µTorrent\Releases\Various - 1992 - L'Apprenti Sorcier, Polyeucte, La Boîte à Joujoux - FLAC\02 - Paul Dukas - Polyeucte (Ouverture).wav
    Pre-gap length 0:00:07.06
    Peak level 85.1 %
    Extraction speed 1.8 X
    Track quality 100.0 %
    Test CRC D41716C4
    Copy CRC D41716C4
    Cannot be verified as accurate (confidence 1) [AE410CA7], AccurateRip returned [73B9592F] (AR v2)
    Copy OK
    Track 3
    Filename D:\Downloads\µTorrent\Releases\Various - 1992 - L'Apprenti Sorcier, Polyeucte, La Boîte à Joujoux - FLAC\03 - Claude Debussy - La boîte à joujoux - 1. Prélude & Sommeil de la boîte.wav
    Pre-gap length 0:00:09.22
    Peak level 13.3 %
    Extraction speed 1.7 X
    Track quality 100.0 %
    Test CRC 34D5A304
    Copy CRC 34D5A304
    Accurately ripped (confidence 1) [9537319C] (AR v1)
    Copy OK
    Track 4
    Filename D:\Downloads\µTorrent\Releases\Various - 1992 - L'Apprenti Sorcier, Polyeucte, La Boîte à Joujoux - FLAC\04 - Claude Debussy - La boîte à joujoux - 2. Premier tableau, la maison des jouets.wav
    Peak level 78.0 %
    Extraction speed 2.2 X
    Track quality 100.0 %
    Test CRC 7E0E7213
    Copy CRC 7E0E7213
    Accurately ripped (confidence 1) [25F8B371] (AR v1)
    Copy OK
    Track 5
    Filename D:\Downloads\µTorrent\Releases\Various - 1992 - L'Apprenti Sorcier, Polyeucte, La Boîte à Joujoux - FLAC\05 - Claude Debussy - La boîte à joujoux - 3. Deuxième tableau, le champ de bataille.wav
    Pre-gap length 0:00:02.33
    Peak level 91.1 %
    Extraction speed 2.3 X
    Track quality 100.0 %
    Test CRC 6A908331
    Copy CRC 6A908331
    Accurately ripped (confidence 1) [A8413D67] (AR v1)
    Copy OK
    Track 6
    Filename D:\Downloads\µTorrent\Releases\Various - 1992 - L'Apprenti Sorcier, Polyeucte, La Boîte à Joujoux - FLAC\06 - Claude Debussy - La boîte à joujoux - 4. Troisième tableau, la bergerie à vendre.wav
    Pre-gap length 0:00:02.24
    Peak level 44.7 %
    Extraction speed 2.4 X
    Track quality 100.0 %
    Test CRC 5213AA2F
    Copy CRC 5213AA2F
    Accurately ripped (confidence 1) [3766124A] (AR v1)
    Copy OK
    Track 7
    Filename D:\Downloads\µTorrent\Releases\Various - 1992 - L'Apprenti Sorcier, Polyeucte, La Boîte à Joujoux - FLAC\07 - Claude Debussy - La boîte à joujoux - 5. Quatrième tableau, après fortune faite.wav
    Peak level 89.2 %
    Extraction speed 2.1 X
    Track quality 100.0 %
    Test CRC 09F1398C
    Copy CRC 09F1398C
    Accurately ripped (confidence 1) [B4E139D7] (AR v1)
    Copy OK
    Track 8
    Filename D:\Downloads\µTorrent\Releases\Various - 1992 - L'Apprenti Sorcier, Polyeucte, La Boîte à Joujoux - FLAC\08 - Claude Debussy - La boîte à joujoux - 6. Épilogue.wav
    Peak level 85.7 %
    Extraction speed 1.3 X
    Track quality 99.8 %
    Test CRC 1D425F39
    Copy CRC 1D425F39
    Accurately ripped (confidence 1) [93DA3F82] (AR v1)
    Copy OK
    6 track(s) accurately ripped
    2 track(s) could not be verified as accurate
    Some tracks could not be verified as accurate
    No errors occurred
    End of status report
    ---- CUETools DB Plugin V2.1.3
    [CTDB TOCID: nYggB4SlG60q_akoR5OdcqJiKBA-] disk not present in database, Submit result: nYggB4SlG60q_akoR5OdcqJiKBA- has been uploaded
    ==== Log checksum 8207FBD9CFD5B77608D9CEE1BF1DD5EC574B7BD5236D94D0DEECFDB018C211D3 ====

    auCDtect Task Manager log / Отчёт auCDtect Task Manager

    -----------------------
    DON'T MODIFY THIS FILE
    -----------------------
    PERFORMER: auCDtect Task Manager, ver. 1.5.1RC3 build 1.5.1.4
    Copyright (c) 2008-2010 y-soft. All rights reserved
    ANALYZER: auCDtect: CD records authenticity detector, version 0.8.2
    Copyright (c) 2004 Oleg Berngardt. All rights reserved.
    Copyright (c) 2004 Alexander Djourik. All rights reserved.
    FILE: 03 - ''La Boite a joujoux'', ballet pour marionnettes - Prelude. Le sommeil de la boite.flac
    Size: 8177154 Hash: AE8DF12CBAA1519E4B8E3A02A6533BA1 Accuracy: -m0
    Conclusion: CDDA 100%
    Signature: 449D5726BD982986108B243567765C809564E1D2
    FILE: 02 - ''Polyeucte'', ouverture pour la tragedie de Corneille.flac
    Size: 66840384 Hash: AC77EC61D4A3255B10B62C56D9628217 Accuracy: -m0
    Conclusion: CDDA 100%
    Signature: BF2E19E3B3236AF86A24286C00DB43C1263FAC14
    FILE: 01 - ''L'Apprenti sorcier'', scherzo symphonique d'apres une ballade de Goethe.flac
    Size: 50379185 Hash: B8D33EBA029AE4FE07FAB2E8D4B4A6F3 Accuracy: -m0
    Conclusion: CDDA 100%
    Signature: 2F5A1E2F5218FA63B66320887ED6B4E79DACD560
    FILE: 08 - ''La Boite a joujoux'', ballet pour marionnettes - Epilogue.flac
    Size: 3720240 Hash: 10F33B83C6E2EEFE9BCF142E72B6A846 Accuracy: -m0
    Conclusion: CDDA 100%
    Signature: 0967E639096252E42BF7ED2EB0895CE1DB84CD4D
    FILE: 07 - ''La Boite a joujoux'', ballet pour marionnettes - Quatrieme tableau. Apres fortune faite.flac
    Size: 10545323 Hash: 054D7F35DFBB996425FDDB9FDE739AE1 Accuracy: -m0
    Conclusion: CDDA 100%
    Signature: C6A95CE8950FFADE5E90EACE36B9679E548FAB47
    FILE: 06 - ''La Boite a joujoux'', ballet pour marionnettes - Troisieme tableau. La bergerie a vendre.flac
    Size: 20727367 Hash: 6525E0B2DFFE8341A239C6568DBC5206 Accuracy: -m0
    Conclusion: CDDA 99%
    Signature: 394EB5F7475C301EE24EB8CC5149CB0BBA529575
    FILE: 05 - ''La Boite a joujoux'', ballet pour marionnettes - Deuxieme tableau. Le champ de bataille.flac
    Size: 33093316 Hash: C7C80C5715B2D29DE016A27F66E69C1B Accuracy: -m0
    Conclusion: CDDA 99%
    Signature: 849AB6889C3210D2ACFAD4CEC83BEF65F7E25DEC
    FILE: 04 - ''La Boite a joujoux'', ballet pour marionnettes - Premier tableau. Le maison de jouets.flac
    Size: 44100111 Hash: 2A6E411A3202BE6FC67AB36FB4D73F76 Accuracy: -m0
    Conclusion: CDDA 100%
    Signature: 56C45200012018BF85522FCE86EEEA9E12593673

    CUETools log / Отчёт CUETools

    [CUETools log; Date: 03.07.2015 14:45:35; Version: 2.1.4]
    [AccurateRip ID: 00171f06-0093158d-640e0908] found.
    Track [ CRC | V2 ] Status
    01 [02c269a1|0f18c3fb] (0+1/2) Accurately ripped
    02 [2304c88d|ae410ca7] (0+1/2) Accurately ripped
    03 [9537319c|b1b082b0] (1+1/2) Accurately ripped
    04 [25f8b371|98e6bda6] (1+1/2) Accurately ripped
    05 [a8413d67|01c661a7] (1+1/2) Accurately ripped
    06 [3766124a|29fea4a9] (1+1/2) Accurately ripped
    07 [b4e139d7|5e065c8c] (1+1/2) Accurately ripped
    08 [93da3f82|891486dc] (1+1/2) Accurately ripped
    Offsetted by 6:
    01 [9f69284f] (1/2) Accurately ripped
    02 [9d89d20f] (0/2) No match
    03 [e2f1b98d] (0/2) No match
    04 [63ed0fed] (0/2) No match
    05 [745ff863] (0/2) No match
    06 [dd1057c2] (0/2) No match
    07 [610c4f7a] (0/2) No match
    08 [d56a0aea] (0/2) No match
    Track Peak [ CRC32 ] [W/O NULL] [ LOG ]
    -- 91,1 [7567B36C] [741BDC18]
    01 86,4 [BEB81EA3] [28A1C1CD] CRC32
    02 85,1 [D41716C4] [A9B2975A] CRC32
    03 13,3 [34D5A304] [7FC57679] CRC32
    04 78,0 [7E0E7213] [5BEE7123] CRC32
    05 91,1 [6A908331] [378328AA] CRC32
    06 44,7 [5213AA2F] [E0FC324F] CRC32
    07 89,2 [09F1398C] [5EEF65A1] CRC32
    08 85,7 [1D425F39] [A6ED199A] CRC32

    CUE sheet

    TITLE "Paul Dukas: L'Apprenti sorcier • Polyeucte | Claude Debussy: La Boîte à joujoux"
    PERFORMER "Armin Jordan"
    REM GENRE Classical
    REM DISCID 640E0908
    REM COMMENT "ExactAudioCopy v1.0b3"
    CATALOG 2292458190206
    FILE "01 - ''L'Apprenti sorcier'', scherzo symphonique d'apres une ballade de Goethe.flac" WAVE
    TRACK 01 AUDIO
    TITLE "«L'Apprenti sorcier», scherzo symphonique d'après une ballade de Goethe"
    PERFORMER "Nouvel Orchestre philharmonique. Armin Jordan, conductor"
    REM DATE 1984
    INDEX 01 00:00:00
    TRACK 02 AUDIO
    TITLE "«Polyeucte», ouverture pour la tragédie de Corneille"
    PERFORMER "Nouvel Orchestre philharmonique. Armin Jordan, conductor"
    REM DATE 1984
    INDEX 00 11:41:00
    FILE "02 - ''Polyeucte'', ouverture pour la tragedie de Corneille.flac" WAVE
    INDEX 01 00:00:00
    TRACK 03 AUDIO
    TITLE "«La Boîte à joujoux», ballet pour marionnettes: Prélude: Le sommeil de la boîte"
    PERFORMER "Basler Sinfonie-Orchester. Armin Jordan, conductor"
    REM DATE 1981
    INDEX 00 15:41:60
    FILE "03 - ''La Boite a joujoux'', ballet pour marionnettes - Prelude. Le sommeil de la boite.flac" WAVE
    INDEX 01 00:00:00
    FILE "04 - ''La Boite a joujoux'', ballet pour marionnettes - Premier tableau. Le maison de jouets.flac" WAVE
    TRACK 04 AUDIO
    TITLE "«La Boîte à joujoux», ballet pour marionnettes: Premier tableau: Le maison de jouets"
    PERFORMER "Basler Sinfonie-Orchester. Armin Jordan, conductor"
    REM DATE 1981
    INDEX 01 00:00:00
    TRACK 05 AUDIO
    TITLE "«La Boîte à joujoux», ballet pour marionnettes: Deuxième tableau: Le champ de bataille"
    PERFORMER "Basler Sinfonie-Orchester. Armin Jordan, conductor"
    REM DATE 1981
    INDEX 00 11:14:10
    FILE "05 - ''La Boite a joujoux'', ballet pour marionnettes - Deuxieme tableau. Le champ de bataille.flac" WAVE
    INDEX 01 00:00:00
    TRACK 06 AUDIO
    TITLE "«La Boîte à joujoux», ballet pour marionnettes: Troisième tableau: La bergerie à vendre"
    PERFORMER "Basler Sinfonie-Orchester. Armin Jordan, conductor"
    REM DATE 1981
    INDEX 00 09:06:55
    FILE "06 - ''La Boite a joujoux'', ballet pour marionnettes - Troisieme tableau. La bergerie a vendre.flac" WAVE
    INDEX 01 00:00:00
    FILE "07 - ''La Boite a joujoux'', ballet pour marionnettes - Quatrieme tableau. Apres fortune faite.flac" WAVE
    TRACK 07 AUDIO
    TITLE "«La Boîte à joujoux», ballet pour marionnettes: Quatrième tableau: Après fortune faite"
    PERFORMER "Basler Sinfonie-Orchester. Armin Jordan, conductor"
    REM DATE 1981
    INDEX 01 00:00:00
    FILE "08 - ''La Boite a joujoux'', ballet pour marionnettes - Epilogue.flac" WAVE
    TRACK 08 AUDIO
    TITLE "«La Boîte à joujoux», ballet pour marionnettes: Épilogue"
    PERFORMER "Basler Sinfonie-Orchester. Armin Jordan, conductor"
    REM DATE 1981
    INDEX 01 00:00:00
    -



  • Показать сообщения:    

    Текущее время: 07-Дек 21:22

    Часовой пояс: UTC + 3


    Вы не можете начинать темы
    Вы не можете отвечать на сообщения
    Вы не можете редактировать свои сообщения
    Вы не можете удалять свои сообщения
    Вы не можете голосовать в опросах
    Вы не можете прикреплять файлы к сообщениям
    Вы не можете скачивать файлы