(Renaissance) Renaissance Music at Princely Courts of Europe - Rozmberk Consort Prague - Frantisek Pok [1996], FLAC (tracks+.cue) lossless


 

[Цитировать]

Renaissance Music at Princely Courts of Europe - Rožmberk Consort Prague
Жанр: Renaissance
Страна-производитель диска: Czech Republic
Год издания диска: 1996
Издатель (лейбл): SUPRAPHON RECORDS
Номер по каталогу: SU 3194-2931
Дата записи: 1993
Аудиокодек: FLAC
Тип рипа: tracks+.cue
Битрейт аудио: lossless
Продолжительность: 1:00:11
Источник: internet
Наличие сканов в содержимом раздачи: да
Треклист:
Elizabethan court in London:
Anthony Holborne (?-1602)
1. The honie suckle
2. Galliard
3. Pavane
4. Galliard
5. Heigh-ho Holiday
6. The night watch
Thomas Morley (1557-1602)
7. La caccia
Henry VIII. (1491-1547)
8. It is to me a right great joy
Thomas Morley
9. La Sampogna
Henry VIII.
10. Consort
John Dowland (1563-1626)
11. Now, o now I needs must part
French Royal Court in Paris:
Pierre Attaignant (1494-1522)
12. Pavane 13
13. Gaillarde 2
14. Pavane 1
15. Gaillarde 2
Claude Gervaise (?-1560)
16. Branle de Bourgogne
17. Branle de Poitou
Piere Certon (?-1572)
18. La, la, la je ne l'ose dire
19. Entre vous gentilz hommes
Clement Janequin (1485-1558)
20. Ce moys de may
Claudin de Sermisy (1490?-1562)
21. Tant que vivrai / Nachttanz
German Courts Ensembles:
Michael Praetorius (1571-1621)
22. Volte
23. Der Vornehme
24. Volte 2
Melichor Franck (1580?-1639)
25. 3 dances
Hening Dedekind (1544-1628)
26. Trink ich Wein
The Rožmberk Court in Český Krumlov:
Giovanni G. Gastoldi (1550-1622)
27. Il premiato, Lo schernito
Francesco Bendusi (?-1553?)
28. Opera nuova da balli
Adriano Banchieri (1565-1634)
29. Sinfonia senza parole a 4
Giorgio Mainerio (1535-1582)
30. Tedescha, Saltarello
31. Ballo anglese, Saltarello
Giovanni G. Gastoldi
32. Poi che rotto ha il lacio Amore
Исполнители:

Rožmberk Consort Prague

FRANTIŠEK POK - cink, serpent, niněra, dudy, kamzicí rohy, křivý roh, zobcová flétna
JANA CRKVOVÁ - viola da braccio (altová), cembalo, regál, varhanní positiv, křivý roh, zobcová flétna
EVA KANIAKOVÁ - viola da braccio (sopránová), křivý roh, bicí nástroje
ZBYŇKA ŠOLCOVA - háčková harfa, bicí nástroje
VOJTĚCH JOUZA -pumort, vzdušnicová šalmaj, raket, kamzicí rohy, křivé rohy, violy da gamba
MARIO MESANY - zobcové flétny, kamzicí rohy, křivé rohy, kortholt
PAVEL POLÁŠEK - kamzicí rohy, křivé rohy, zobcové flétny, kornamusa, pumort
LIBOR ZÍDEK - zpěv, kamzicí rohy, křivý roh, fanfrnoch, bicí nástroje
VOJTĚCH HAVEL (j.h.) - viola da gamba
Hudební zpracování: František Pok
-

Лог создания рипа

Archivo Log de extracciones desde 9. Diciembre 2007, 18:20 para el CD
The Rozmberk Consort Prague / Renaissance Music at Princely Courts of Europe
Usar unidad : HL-DT-STDVDRAM GSA-4081B Adapter: 1 ID: 1
Modo de Lectura : Seguro SIN C2, CON 'Corriente Exacta', CON caché desactivada
Corrección de Desplazamiento de Lectura : 667
Sobreleer tanto en Lead-In como en Lead-Out : No
Formato de Salida utilizado : C:\Archivos de programa\Exact Audio Copy\FLAC\flac.exe (Compresor definido por el Usuario)
128 kBit/s
Opciones adicionales en línea de comandos : -V -8 -T "artist=%a" -T "title=%t" -T "album=g" -T "date=%y" -T "tracknumber=%n" -T "genre=%m" %s
Otras opciones :
Rellenar las muestras faltantes con silencios : Sí
Eliminar silencios inicial y final : No
Interfaz ASPI externo instalado
Pista 1
Nombre de Archivo C:\Documents and Settings\usuario\Mis documentos\EAC extracción\01 The bonie suckle.wav
Nivel Pico 71.5 %
Calidad de Pista 99.8 %
Test CRC CD502F5E
Copiar CRC CD502F5E
Copia OK
Pista 2
Nombre de Archivo C:\Documents and Settings\usuario\Mis documentos\EAC extracción\02 Gaillard.wav
Nivel Pico 89.0 %
Calidad de Pista 100.0 %
Test CRC 258D4D21
Copiar CRC 258D4D21
Copia OK
Pista 3
Nombre de Archivo C:\Documents and Settings\usuario\Mis documentos\EAC extracción\03 Pavane.wav
Nivel Pico 81.2 %
Calidad de Pista 99.9 %
Test CRC 5020B7CD
Copiar CRC 5020B7CD
Copia OK
Pista 4
Nombre de Archivo C:\Documents and Settings\usuario\Mis documentos\EAC extracción\04 Gaillard.wav
Nivel Pico 79.3 %
Calidad de Pista 100.0 %
Test CRC 285141FD
Copiar CRC 285141FD
Copia OK
Pista 5
Nombre de Archivo C:\Documents and Settings\usuario\Mis documentos\EAC extracción\05 Heigh-ho Holiday.wav
Nivel Pico 70.1 %
Calidad de Pista 100.0 %
Test CRC B129BF01
Copiar CRC B129BF01
Copia OK
Pista 6
Nombre de Archivo C:\Documents and Settings\usuario\Mis documentos\EAC extracción\06 The night watch.wav
Nivel Pico 85.6 %
Calidad de Pista 100.0 %
Test CRC 6E09B9B0
Copiar CRC 6E09B9B0
Copia OK
Pista 7
Nombre de Archivo C:\Documents and Settings\usuario\Mis documentos\EAC extracción\07 La caccia.wav
Nivel Pico 70.5 %
Calidad de Pista 100.0 %
Test CRC 35F207E1
Copiar CRC 35F207E1
Copia OK
Pista 8
Nombre de Archivo C:\Documents and Settings\usuario\Mis documentos\EAC extracción\08 It is to me a right great joy.wav
Nivel Pico 72.3 %
Calidad de Pista 100.0 %
Test CRC DE813E60
Copiar CRC DE813E60
Copia OK
Pista 9
Nombre de Archivo C:\Documents and Settings\usuario\Mis documentos\EAC extracción\09 La Sampogna.wav
Nivel Pico 71.6 %
Calidad de Pista 100.0 %
Test CRC C6202143
Copiar CRC C6202143
Copia OK
Pista 10
Nombre de Archivo C:\Documents and Settings\usuario\Mis documentos\EAC extracción\10 Consort.wav
Nivel Pico 63.1 %
Calidad de Pista 100.0 %
Test CRC AA96AA28
Copiar CRC AA96AA28
Copia OK
Pista 11
Nombre de Archivo C:\Documents and Settings\usuario\Mis documentos\EAC extracción\11 Now o now I need must part.wav
Nivel Pico 89.0 %
Calidad de Pista 100.0 %
Test CRC EC35BFC5
Copiar CRC EC35BFC5
Copia OK
Pista 12
Nombre de Archivo C:\Documents and Settings\usuario\Mis documentos\EAC extracción\12 Pavane 13.wav
Nivel Pico 89.0 %
Calidad de Pista 100.0 %
Test CRC DF57C86A
Copiar CRC DF57C86A
Copia OK
Pista 13
Nombre de Archivo C:\Documents and Settings\usuario\Mis documentos\EAC extracción\13 Gaillarde 2.wav
Nivel Pico 72.7 %
Calidad de Pista 100.0 %
Test CRC 8217741C
Copiar CRC 8217741C
Copia OK
Pista 14
Nombre de Archivo C:\Documents and Settings\usuario\Mis documentos\EAC extracción\14 Pavane 1.wav
Nivel Pico 89.0 %
Calidad de Pista 100.0 %
Test CRC 923742DD
Copiar CRC 923742DD
Copia OK
Pista 15
Nombre de Archivo C:\Documents and Settings\usuario\Mis documentos\EAC extracción\15 Gaillarde 2.wav
Nivel Pico 71.3 %
Calidad de Pista 100.0 %
Test CRC 07D212A3
Copiar CRC 07D212A3
Copia OK
Pista 16
Nombre de Archivo C:\Documents and Settings\usuario\Mis documentos\EAC extracción\16 Branle de Bourgogne.wav
Nivel Pico 63.8 %
Calidad de Pista 100.0 %
Test CRC 98CD1864
Copiar CRC 98CD1864
Copia OK
Pista 17
Nombre de Archivo C:\Documents and Settings\usuario\Mis documentos\EAC extracción\17 Bramle de Poitou.wav
Nivel Pico 89.0 %
Calidad de Pista 100.0 %
Test CRC 4F11D3F3
Copiar CRC 4F11D3F3
Copia OK
Pista 18
Nombre de Archivo C:\Documents and Settings\usuario\Mis documentos\EAC extracción\18 La, la, la je ne l'ose dire.wav
Nivel Pico 64.9 %
Calidad de Pista 100.0 %
Test CRC 1871E583
Copiar CRC 1871E583
Copia OK
Pista 19
Nombre de Archivo C:\Documents and Settings\usuario\Mis documentos\EAC extracción\19 Entre vous gentilz hommes.wav
Nivel Pico 66.0 %
Calidad de Pista 99.8 %
Test CRC 1587510C
Copiar CRC 1587510C
Copia OK
Pista 20
Nombre de Archivo C:\Documents and Settings\usuario\Mis documentos\EAC extracción\20 Ce moys de may.wav
Nivel Pico 48.9 %
Calidad de Pista 99.8 %
Test CRC 3054ACCA
Copiar CRC 3054ACCA
Copia OK
Pista 21
Nombre de Archivo C:\Documents and Settings\usuario\Mis documentos\EAC extracción\21 Tant que vivrai,Nachtanz.wav
Nivel Pico 82.5 %
Calidad de Pista 100.0 %
Test CRC 9D231B7B
Copiar CRC 9D231B7B
Copia OK
Pista 22
Nombre de Archivo C:\Documents and Settings\usuario\Mis documentos\EAC extracción\22 Volte.wav
Nivel Pico 60.2 %
Calidad de Pista 100.0 %
Test CRC 401D6ACF
Copiar CRC 401D6ACF
Copia OK
Pista 23
Nombre de Archivo C:\Documents and Settings\usuario\Mis documentos\EAC extracción\23 Der Vornehme.wav
Nivel Pico 53.3 %
Calidad de Pista 100.0 %
Test CRC EC4CFB08
Copiar CRC EC4CFB08
Copia OK
Pista 24
Nombre de Archivo C:\Documents and Settings\usuario\Mis documentos\EAC extracción\24 Volte 2.wav
Nivel Pico 73.2 %
Calidad de Pista 100.0 %
Test CRC CD2DF8E7
Copiar CRC CD2DF8E7
Copia OK
Pista 25
Nombre de Archivo C:\Documents and Settings\usuario\Mis documentos\EAC extracción\25 3 dances.wav
Nivel Pico 88.9 %
Calidad de Pista 100.0 %
Test CRC 6976EB21
Copiar CRC 6976EB21
Copia OK
Pista 26
Nombre de Archivo C:\Documents and Settings\usuario\Mis documentos\EAC extracción\26 Trink ich Wein.wav
Nivel Pico 78.0 %
Calidad de Pista 100.0 %
Test CRC F36D42FF
Copiar CRC F36D42FF
Copia OK
Pista 27
Nombre de Archivo C:\Documents and Settings\usuario\Mis documentos\EAC extracción\27 Il premiato, Lo schernito.wav
Nivel Pico 82.5 %
Calidad de Pista 100.0 %
Test CRC B0DC1AB3
Copiar CRC B0DC1AB3
Copia OK
Pista 28
Nombre de Archivo C:\Documents and Settings\usuario\Mis documentos\EAC extracción\28 Opera nuova da balli.wav
Nivel Pico 80.3 %
Calidad de Pista 100.0 %
Test CRC DDEF0AC4
Copiar CRC DDEF0AC4
Copia OK
Pista 29
Nombre de Archivo C:\Documents and Settings\usuario\Mis documentos\EAC extracción\29 Sinfonia senza parole a 4.wav
Nivel Pico 74.5 %
Calidad de Pista 100.0 %
Test CRC 136E26D6
Copiar CRC 136E26D6
Copia OK
Pista 30
Nombre de Archivo C:\Documents and Settings\usuario\Mis documentos\EAC extracción\30 Tedescha, Saltarello.wav
Nivel Pico 58.2 %
Calidad de Pista 100.0 %
Test CRC C66C2393
Copiar CRC C66C2393
Copia OK
Pista 31
Nombre de Archivo C:\Documents and Settings\usuario\Mis documentos\EAC extracción\31 Ballo anglese, Saltarello.wav
Nivel Pico 72.3 %
Calidad de Pista 100.0 %
Test CRC C60303F0
Copiar CRC C60303F0
Copia OK
Pista 32
Nombre de Archivo C:\Documents and Settings\usuario\Mis documentos\EAC extracción\32 Poi che rotto ha il tacio Amore.wav
Nivel Pico 86.6 %
Calidad de Pista 100.0 %
Test CRC B2760900
Copiar CRC B2760900
Copia OK
Sin Errores
Final del Informe

Содержание индексной карты (.CUE)

REM GENRE Classical
REM DATE 1996
REM DISCID BA0E1B20
REM COMMENT "ExactAudioCopy v0.95b4"
PERFORMER "The Rozmberk Consort Prague"
TITLE "Renaissance Music at Princely Courts of Europe"
FILE "01 The bonie suckle.flac" WAVE
TRACK 01 AUDIO
TITLE "The bonie suckle"
PERFORMER "The Rozmberk Consort Prague"
PREGAP 00:00:32
INDEX 01 00:00:00
FILE "02 Gaillard.flac" WAVE
TRACK 02 AUDIO
TITLE "Gaillard"
PERFORMER "The Rozmberk Consort Prague"
INDEX 00 01:16:25
FILE "03 Pavane.flac" WAVE
TRACK 03 AUDIO
TITLE "Pavane"
PERFORMER "The Rozmberk Consort Prague"
INDEX 01 00:00:00
TRACK 04 AUDIO
TITLE "Gaillard"
PERFORMER "The Rozmberk Consort Prague"
INDEX 00 02:45:35
FILE "04 Gaillard.flac" WAVE
INDEX 01 00:00:00
TRACK 05 AUDIO
TITLE "Heigh-ho Holiday"
PERFORMER "The Rozmberk Consort Prague"
INDEX 00 01:42:33
FILE "05 Heigh-ho Holiday.flac" WAVE
INDEX 01 00:00:00
TRACK 06 AUDIO
TITLE "The night watch"
PERFORMER "The Rozmberk Consort Prague"
INDEX 00 02:21:57
FILE "06 The night watch.flac" WAVE
INDEX 01 00:00:00
TRACK 07 AUDIO
TITLE "La caccia"
PERFORMER "The Rozmberk Consort Prague"
INDEX 00 01:56:25
FILE "07 La caccia.flac" WAVE
INDEX 01 00:00:00
TRACK 08 AUDIO
TITLE "It is to me a right great joy"
PERFORMER "The Rozmberk Consort Prague"
INDEX 00 01:30:35
FILE "08 It is to me a right great joy.flac" WAVE
INDEX 01 00:00:00
FILE "09 La Sampogna.flac" WAVE
TRACK 09 AUDIO
TITLE "La Sampogna"
PERFORMER "The Rozmberk Consort Prague"
INDEX 01 00:00:00
TRACK 10 AUDIO
TITLE "Consort"
PERFORMER "The Rozmberk Consort Prague"
INDEX 00 02:00:35
FILE "10 Consort.flac" WAVE
INDEX 01 00:00:00
TRACK 11 AUDIO
TITLE "Now o now I need must part"
PERFORMER "The Rozmberk Consort Prague"
INDEX 00 01:34:15
FILE "11 Now o now I need must part.flac" WAVE
INDEX 01 00:00:00
TRACK 12 AUDIO
TITLE "Pavane 13"
PERFORMER "The Rozmberk Consort Prague"
INDEX 00 02:16:65
FILE "12 Pavane 13.flac" WAVE
INDEX 01 00:00:00
TRACK 13 AUDIO
TITLE "Gaillarde 2"
PERFORMER "The Rozmberk Consort Prague"
INDEX 00 01:14:73
FILE "13 Gaillarde 2.flac" WAVE
INDEX 01 00:00:00
TRACK 14 AUDIO
TITLE "Pavane 1"
PERFORMER "The Rozmberk Consort Prague"
INDEX 00 01:12:10
FILE "14 Pavane 1.flac" WAVE
INDEX 01 00:00:00
TRACK 15 AUDIO
TITLE "Gaillarde 2"
PERFORMER "The Rozmberk Consort Prague"
INDEX 00 01:09:70
FILE "15 Gaillarde 2.flac" WAVE
INDEX 01 00:00:00
TRACK 16 AUDIO
TITLE "Branle de Bourgogne"
PERFORMER "The Rozmberk Consort Prague"
INDEX 00 00:35:58
FILE "16 Branle de Bourgogne.flac" WAVE
INDEX 01 00:00:00
TRACK 17 AUDIO
TITLE "Bramle de Poitou"
PERFORMER "The Rozmberk Consort Prague"
INDEX 00 01:02:65
FILE "17 Bramle de Poitou.flac" WAVE
INDEX 01 00:00:00
TRACK 18 AUDIO
TITLE "La, la, la je ne l'ose dire"
PERFORMER "The Rozmberk Consort Prague"
INDEX 00 01:56:45
FILE "18 La, la, la je ne l'ose dire.flac" WAVE
INDEX 01 00:00:00
TRACK 19 AUDIO
TITLE "Entre vous gentilz hommes"
PERFORMER "The Rozmberk Consort Prague"
INDEX 00 01:42:65
FILE "19 Entre vous gentilz hommes.flac" WAVE
INDEX 01 00:00:00
TRACK 20 AUDIO
TITLE "Ce moys de may"
PERFORMER "The Rozmberk Consort Prague"
INDEX 00 01:24:50
FILE "20 Ce moys de may.flac" WAVE
INDEX 01 00:00:00
TRACK 21 AUDIO
TITLE "Tant que vivrai/Nachtanz"
PERFORMER "The Rozmberk Consort Prague"
INDEX 00 01:16:60
FILE "21 Tant que vivrai,Nachtanz.flac" WAVE
INDEX 01 00:00:00
TRACK 22 AUDIO
TITLE "Volte"
PERFORMER "The Rozmberk Consort Prague"
INDEX 00 03:30:63
FILE "22 Volte.flac" WAVE
INDEX 01 00:00:00
TRACK 23 AUDIO
TITLE "Der Vornehme"
PERFORMER "The Rozmberk Consort Prague"
INDEX 00 01:55:43
FILE "23 Der Vornehme.flac" WAVE
INDEX 01 00:00:00
TRACK 24 AUDIO
TITLE "Volte 2"
PERFORMER "The Rozmberk Consort Prague"
INDEX 00 01:33:42
FILE "24 Volte 2.flac" WAVE
INDEX 01 00:00:00
TRACK 25 AUDIO
TITLE "3 dances"
PERFORMER "The Rozmberk Consort Prague"
INDEX 00 01:13:63
FILE "25 3 dances.flac" WAVE
INDEX 01 00:00:00
TRACK 26 AUDIO
TITLE "Trink ich Wein"
PERFORMER "The Rozmberk Consort Prague"
INDEX 00 04:20:18
FILE "26 Trink ich Wein.flac" WAVE
INDEX 01 00:00:00
TRACK 27 AUDIO
TITLE "Il premiato, Lo schernito"
PERFORMER "The Rozmberk Consort Prague"
INDEX 00 01:30:08
FILE "27 Il premiato, Lo schernito.flac" WAVE
INDEX 01 00:00:00
TRACK 28 AUDIO
TITLE "Opera nuova da balli"
PERFORMER "The Rozmberk Consort Prague"
INDEX 00 02:13:30
FILE "28 Opera nuova da balli.flac" WAVE
INDEX 01 00:00:00
TRACK 29 AUDIO
TITLE "Sinfonia senza parole a 4"
PERFORMER "The Rozmberk Consort Prague"
INDEX 00 02:13:33
FILE "29 Sinfonia senza parole a 4.flac" WAVE
INDEX 01 00:00:00
TRACK 30 AUDIO
TITLE "Tedescha, Saltarello"
PERFORMER "The Rozmberk Consort Prague"
INDEX 00 02:00:20
FILE "30 Tedescha, Saltarello.flac" WAVE
INDEX 01 00:00:00
TRACK 31 AUDIO
TITLE "Ballo anglese, Saltarello"
PERFORMER "The Rozmberk Consort Prague"
INDEX 00 02:35:63
FILE "31 Ballo anglese, Saltarello.flac" WAVE
INDEX 01 00:00:00
TRACK 32 AUDIO
TITLE "Poi che rotto ha il tacio Amore"
PERFORMER "The Rozmberk Consort Prague"
INDEX 00 01:53:15
FILE "32 Poi che rotto ha il tacio Amore.flac" WAVE
INDEX 01 00:00:00

Лог проверки качества

AUDIOCHECKER v2.0 beta (build 457) - by Dester - opdester@freemail.hu
~~~~~~~~~~~~~~~~~~~~~~~~~~~~~~~~~~
-=== DO NOT EDIT THIS FILE! ===-
Path: ...\The Rozmberk Consort Prague - Renaissance Music at Princely Courts of Europe (1996)
01 -=- 01 The bonie suckle.flac -=- CDDA (100%)
02 -=- 02 Gaillard.flac -=- CDDA (99%)
03 -=- 03 Pavane.flac -=- CDDA (100%)
04 -=- 04 Gaillard.flac -=- CDDA (100%)
05 -=- 05 Heigh-ho Holiday.flac -=- CDDA (100%)
06 -=- 06 The night watch.flac -=- CDDA (100%)
07 -=- 07 La caccia.flac -=- CDDA (99%)
08 -=- 08 It is to me a right great joy.flac -=- CDDA (100%)
09 -=- 09 La Sampogna.flac -=- CDDA (100%)
10 -=- 10 Consort.flac -=- CDDA (99%)
11 -=- 11 Now o now I need must part.flac -=- CDDA (100%)
12 -=- 12 Pavane 13.flac -=- CDDA (100%)
13 -=- 13 Gaillarde 2.flac -=- CDDA (100%)
14 -=- 14 Pavane 1.flac -=- CDDA (100%)
15 -=- 15 Gaillarde 2.flac -=- CDDA (100%)
16 -=- 16 Branle de Bourgogne.flac -=- CDDA (100%)
17 -=- 17 Bramle de Poitou.flac -=- CDDA (100%)
18 -=- 18 La, la, la je ne l'ose dire.flac -=- CDDA (100%)
19 -=- 19 Entre vous gentilz hommes.flac -=- CDDA (99%)
20 -=- 20 Ce moys de may.flac -=- CDDA (100%)
21 -=- 21 Tant que vivrai,Nachtanz.flac -=- CDDA (100%)
22 -=- 22 Volte.flac -=- CDDA (100%)
23 -=- 23 Der Vornehme.flac -=- CDDA (100%)
24 -=- 24 Volte 2.flac -=- CDDA (100%)
25 -=- 25 3 dances.flac -=- CDDA (100%)
26 -=- 26 Trink ich Wein.flac -=- CDDA (100%)
27 -=- 27 Il premiato, Lo schernito.flac -=- CDDA (100%)
28 -=- 28 Opera nuova da balli.flac -=- CDDA (100%)
29 -=- 29 Sinfonia senza parole a 4.flac -=- CDDA (100%)
30 -=- 30 Tedescha, Saltarello.flac -=- CDDA (100%)
31 -=- 31 Ballo anglese, Saltarello.flac -=- CDDA (100%)
32 -=- 32 Poi che rotto ha il tacio Amore.flac -=- CDDA (100%)
Summary 99,88% CDDA
238723732

Скриншот спектра частот

Доп. информация: Recordered digitally at DAMU Studio, Prague, from 23 to 24 October, 1993



Показать сообщения:    

Текущее время: 04-Дек 00:52

Часовой пояс: UTC + 3


Вы не можете начинать темы
Вы не можете отвечать на сообщения
Вы не можете редактировать свои сообщения
Вы не можете удалять свои сообщения
Вы не можете голосовать в опросах
Вы не можете прикреплять файлы к сообщениям
Вы не можете скачивать файлы