(Classical / Symphony / Orchestral) Johannes Brahms - Symphonie Nr. 3 • Symphonie Nr. 1: Allegretto • Akademische Festouverture • Tragische Ouverture (Concertgebouworkest Amsterdam, Willem Mengelberg, 1930-1942) - 2002, FLAC (tracks+.cue) lossless


 

[Цитировать]

Johannes Brahms | Йоханнес Брамс
(1833–1897)



Symphonie Nr. 3 | Allegretto aus Symphonie Nr. 1
Akademische Festouvertüre | Tragische Ouvertüre

Симфония № 3 | Allegretto из Симфонии № 1
Академическая праздничная увертюра | Трагическая увертюра



Concertgebouworkest Amsterdam
Willem Mengelberg conductor


Жанр: Classical / Symphony / Orchestral
Даты записи: 1930, 1931, 1942
Формат записи: ADD, Mono
Год издания диска: 2002
Издатель (лейбл): NAXOS
Номер по каталогу: 8.110164
Аудиокодек: FLAC
Тип рипа: tracks+.cue
Битрейт аудио: lossless
Продолжительность: 1:05:38
Наличие сканов в содержимом раздачи: да
Источник: What.CD
Релизёр: TheLoo


Tracklist / Треклист
Akademische Festouvertüre, Op. 80 - 11:11
Recorded: Concertgebouw, Amsterdam, 30 May 1930
Symphonie Nr. 1 c-moll, Op. 68
III. Un poco Allegretto e grazioso - 4:33
Recorded: Concertgebouw, Amsterdam, 31 May 1930
Symphonie Nr. 3 F-dur, Op. 90 - 35:18
I. Allegro con brio - 13:03
  • II. Andante - 7:08
  • III. Poco Allegretto - 5:39
  • IV. Allegro - 9:28
    Recorded: 10 May 1931
    Tragische Ouvertüre, Op. 81 - 14:36
    Recorded: Concertgebouw, Amsterdam, 17 April 1942

    -

    EAC log / Отчёт EAC

    Exact Audio Copy V1.0 beta 6 from 9. April 2015
    EAC extraction logfile from 27. June 2015, 21:19
    Willem Mengelberg & Concertgebouw Orchestra of Amsterdam / Brahms: Symphony No. 3 - Mengelberg
    Used drive : TSSTcorpCDDVDW SH-224BB Adapter: 1 ID: 0
    Read mode : Secure
    Utilize accurate stream : Yes
    Defeat audio cache : Yes
    Make use of C2 pointers : No
    Read offset correction : 6
    Overread into Lead-In and Lead-Out : No
    Fill up missing offset samples with silence : Yes
    Delete leading and trailing silent blocks : No
    Null samples used in CRC calculations : Yes
    Used interface : Native Win32 interface for Win NT & 2000
    Gap handling : Appended to previous track
    Used output format : User Defined Encoder
    Selected bitrate : 896 kBit/s
    Quality : High
    Add ID3 tag : No
    Command line compressor : C:\Program Files (x86)\FLAC\flac.exe
    Additional command line options : -T "artist=%artist%" -T "title=%title%" -T "album=%albumtitle%" -T "date=%year%" -T "tracknumber=%tracknr%" -T "genre=%genre%" -T "composer=%composer%" -5 %source%
    TOC of the extracted CD
    Track | Start | Length | Start sector | End sector
    ---------------------------------------------------------
    1 | 0:00.00 | 11:11.00 | 0 | 50324
    2 | 11:11.00 | 4:32.67 | 50325 | 70791
    3 | 15:43.67 | 13:03.13 | 70792 | 129529
    4 | 28:47.05 | 7:07.70 | 129530 | 161624
    5 | 35:55.00 | 5:39.12 | 161625 | 187061
    6 | 41:34.12 | 9:28.10 | 187062 | 229671
    7 | 51:02.22 | 14:35.53 | 229672 | 295349
    Track 1
    Filename E:\EAC Rips\Brahms - Symphony No. 3 - Mengelberg\01 Academic Festival Overture, Op. 80.wav
    Pre-gap length 0:00:02.00
    Peak level 96.9 %
    Extraction speed 5.2 X
    Track quality 99.9 %
    Test CRC 03FFD445
    Copy CRC 03FFD445
    Accurately ripped (confidence 2) [95C2FE9E] (AR v2)
    Copy OK
    Track 2
    Filename E:\EAC Rips\Brahms - Symphony No. 3 - Mengelberg\02 Symphony No. 1 in C Minor, Op. 68- III. Un poco allegretto e grazioso.wav
    Pre-gap length 0:00:02.68
    Peak level 38.6 %
    Extraction speed 4.9 X
    Track quality 99.9 %
    Test CRC 51A4B63E
    Copy CRC 51A4B63E
    Accurately ripped (confidence 2) [B5C03549] (AR v2)
    Copy OK
    Track 3
    Filename E:\EAC Rips\Brahms - Symphony No. 3 - Mengelberg\03 Symphony No. 3 in F Major, Op. 90- I. Allegro con brio.wav
    Pre-gap length 0:00:05.37
    Peak level 77.2 %
    Extraction speed 6.9 X
    Track quality 99.9 %
    Test CRC 39395DBA
    Copy CRC 39395DBA
    Accurately ripped (confidence 2) [27DE72CE] (AR v2)
    Copy OK
    Track 4
    Filename E:\EAC Rips\Brahms - Symphony No. 3 - Mengelberg\04 Symphony No. 3 in F Major, Op. 90- II. Andante.wav
    Pre-gap length 0:00:01.08
    Peak level 86.7 %
    Extraction speed 6.7 X
    Track quality 99.9 %
    Test CRC 81EEF438
    Copy CRC 81EEF438
    Accurately ripped (confidence 2) [82C65603] (AR v2)
    Copy OK
    Track 5
    Filename E:\EAC Rips\Brahms - Symphony No. 3 - Mengelberg\05 Symphony No. 3 in F Major, Op. 90- III. Poco allegretto.wav
    Pre-gap length 0:00:02.15
    Peak level 59.4 %
    Extraction speed 8.0 X
    Track quality 100.0 %
    Test CRC 869A5DA6
    Copy CRC 869A5DA6
    Accurately ripped (confidence 2) [13D22D91] (AR v2)
    Copy OK
    Track 6
    Filename E:\EAC Rips\Brahms - Symphony No. 3 - Mengelberg\06 Symphony No. 3 in F Major, Op. 90- IV. Allegro.wav
    Pre-gap length 0:00:02.50
    Peak level 93.2 %
    Extraction speed 8.8 X
    Track quality 100.0 %
    Test CRC 8D134B06
    Copy CRC 8D134B06
    Accurately ripped (confidence 2) [8A4380F1] (AR v2)
    Copy OK
    Track 7
    Filename E:\EAC Rips\Brahms - Symphony No. 3 - Mengelberg\07 Tragic Overture, Op. 81.wav
    Pre-gap length 0:00:05.63
    Peak level 90.2 %
    Extraction speed 9.7 X
    Track quality 100.0 %
    Test CRC 05052454
    Copy CRC 05052454
    Accurately ripped (confidence 2) [749B6482] (AR v2)
    Copy OK
    All tracks accurately ripped
    No errors occurred
    End of status report
    ---- CUETools DB Plugin V2.1.6
    [CTDB TOCID: 3KJJh9m.L3T75mwvD_jDYXZQv9o-] found
    Submit result: already submitted
    Track | CTDB Status
    1 | (2/2) Accurately ripped
    2 | (2/2) Accurately ripped
    3 | (2/2) Accurately ripped
    4 | (2/2) Accurately ripped
    5 | (2/2) Accurately ripped
    6 | (2/2) Accurately ripped
    7 | (1/2) Accurately ripped, or (1/2) differs in 6 samples @14:32:60
    ==== Log checksum FB5F8082E7B19D50C2A3C4E3DDF3477C1879070BB8C0E32EA383CC37AB39FE22 ====

    auCDtect Task Manager log / Отчёт auCDtect Task Manager

    -----------------------
    DON'T MODIFY THIS FILE
    -----------------------
    PERFORMER: auCDtect Task Manager, ver. 1.5.1RC3 build 1.5.1.4
    Copyright (c) 2008-2010 y-soft. All rights reserved
    ANALYZER: auCDtect: CD records authenticity detector, version 0.8.2
    Copyright (c) 2004 Oleg Berngardt. All rights reserved.
    Copyright (c) 2004 Alexander Djourik. All rights reserved.
    FILE: 01 - Akademische Festouvertuere, Op. 80.flac
    Size: 27780650 Hash: D254280711D2D12409DE44399A933B80 Accuracy: -m0
    Conclusion: CDDA 100%
    Signature: B3F767B6D137A5DEC22B1B3603A471F6764F7417
    FILE: 07 - Tragische Ouvertuere, Op. 81.flac
    Size: 40155294 Hash: 338599713A3F6009E9D28BDED9CA23C0 Accuracy: -m0
    Conclusion: CDDA 100%
    Signature: F07AD3DB74CB4671946E8B7BD908A84B90304956
    FILE: 06 - Symphonie Nr. 3 - IV. Allegro.flac
    Size: 23252055 Hash: 1F92F85302E53C78EEF81E515E522D7D Accuracy: -m0
    Conclusion: CDDA 100%
    Signature: B6A7EAB058F9E304824FF608DFE460412221BBC2
    FILE: 05 - Symphonie Nr. 3 - III. Poco Allegretto.flac
    Size: 13374351 Hash: 659D7D999DF208D98B533B1CADA4DFA9 Accuracy: -m0
    Conclusion: CDDA 100%
    Signature: 3C1EDF0A4BCE240992B9D6358904D43D2C90569C
    FILE: 04 - Symphonie Nr. 3 - II. Andante.flac
    Size: 16710475 Hash: 1B014AC5567DD96167D8C90DF3C46093 Accuracy: -m0
    Conclusion: CDDA 100%
    Signature: 1286F8DF9B2D7BEE3F1FA9C0CF36848A881A7123
    FILE: 03 - Symphonie Nr. 3 - I. Allegro con brio.flac
    Size: 32014252 Hash: 9B05EC469ED4D95C44DD2DCA0FA18045 Accuracy: -m0
    Conclusion: CDDA 100%
    Signature: F372F58D8E19340BE7B86D2FB76074A08E0C2D05
    FILE: 02 - Symphonie Nr. 1 - III. Un poco Allegretto e grazioso.flac
    Size: 10518217 Hash: 0AE069BC3A493FB5E9BC6AF499D923FC Accuracy: -m0
    Conclusion: CDDA 100%
    Signature: 917DFD25B834AE97F76BD9619FF58F28FE1E4E50

    CUETools log / Отчёт CUETools

    [CUETools log; Date: 03.07.2015 20:26:38; Version: 2.1.4]
    [AccurateRip ID: 00112804-0066b974-680f6207] found.
    Track [ CRC | V2 ] Status
    01 [f86feed9|95c2fe9e] (0+2/4) Accurately ripped
    02 [9002d04e|b5c03549] (0+2/4) Accurately ripped
    03 [4e6a098f|27de72ce] (0+2/4) Accurately ripped
    04 [c0bd2974|82c65603] (0+2/4) Accurately ripped
    05 [dbb4ab4f|13d22d91] (0+2/4) Accurately ripped
    06 [a89c5f30|8a4380f1] (0+2/4) Accurately ripped
    07 [c694c827|749b6482] (0+2/4) Accurately ripped
    Offsetted by -30:
    01 [8d6541c3] (0/4) No match (V2 was not tested)
    02 [cf029b4e] (0/4) No match (V2 was not tested)
    03 [796b18b5] (0/4) No match (V2 was not tested)
    04 [02f82986] (0/4) No match (V2 was not tested)
    05 [15f6bb1f] (0/4) No match (V2 was not tested)
    06 [0247229a] (0/4) No match (V2 was not tested)
    07 [5bade36b] (0/4) No match (V2 was not tested)
    Offsetted by 3:
    01 [cff10028] (0/4) No match (V2 was not tested)
    02 [09b608ce] (0/4) No match (V2 was not tested)
    03 [7d5054d8] (0/4) No match (V2 was not tested)
    04 [06ea763f] (0/4) No match (V2 was not tested)
    05 [09147687] (0/4) No match (V2 was not tested)
    06 [1fa4e53f] (0/4) No match (V2 was not tested)
    07 [1e12456d] (0/4) No match (V2 was not tested)
    Track Peak [ CRC32 ] [W/O NULL] [ LOG ]
    -- 96,9 [B65A7F9C] [7278869E]
    01 96,9 [03FFD445] [698BCD7D] CRC32
    02 38,6 [51A4B63E] [CFFA877E] CRC32
    03 77,2 [39395DBA] [CEE8C24B] CRC32
    04 86,7 [81EEF438] [C6B1D644] CRC32
    05 59,4 [869A5DA6] [A7300E02] CRC32
    06 93,2 [8D134B06] [183EB6C4] CRC32
    07 90,2 [05052454] [E7571981] CRC32

    CUE sheet

    TITLE "Johannes Brahms: Symphonie Nr. 3 • Akademische Festouvertüre • Tragische Ouvertüre"
    PERFORMER "Willem Mengelberg"
    REM GENRE Classical
    REM DISCID 680F6207
    REM COMMENT "ExactAudioCopy v1.0b6"
    FILE "01 - Akademische Festouvertuere, Op. 80.flac" WAVE
    TRACK 01 AUDIO
    TITLE "Akademische Festouvertüre, Op. 80"
    PERFORMER "Concertgebouworkest Amsterdam. Willem Mengelberg, conductor"
    REM DATE 1930
    INDEX 01 00:00:00
    TRACK 02 AUDIO
    TITLE "Symphonie Nr. 1 c-moll, Op. 68: III. Un poco Allegretto e grazioso"
    PERFORMER "Concertgebouworkest Amsterdam. Willem Mengelberg, conductor"
    REM DATE 1930
    INDEX 00 11:08:07
    FILE "02 - Symphonie Nr. 1 - III. Un poco Allegretto e grazioso.flac" WAVE
    INDEX 01 00:00:00
    TRACK 03 AUDIO
    TITLE "Symphonie Nr. 3 F-dur, Op. 90: I. Allegro con brio"
    PERFORMER "Concertgebouworkest Amsterdam. Willem Mengelberg, conductor"
    REM DATE 1931
    INDEX 00 04:27:30
    FILE "03 - Symphonie Nr. 3 - I. Allegro con brio.flac" WAVE
    INDEX 01 00:00:00
    TRACK 04 AUDIO
    TITLE "Symphonie Nr. 3 F-dur, Op. 90: II. Andante"
    PERFORMER "Concertgebouworkest Amsterdam. Willem Mengelberg, conductor"
    REM DATE 1931
    INDEX 00 13:02:05
    FILE "04 - Symphonie Nr. 3 - II. Andante.flac" WAVE
    INDEX 01 00:00:00
    TRACK 05 AUDIO
    TITLE "Symphonie Nr. 3 F-dur, Op. 90: III. Poco Allegretto"
    PERFORMER "Concertgebouworkest Amsterdam. Willem Mengelberg, conductor"
    REM DATE 1931
    INDEX 00 07:05:55
    FILE "05 - Symphonie Nr. 3 - III. Poco Allegretto.flac" WAVE
    INDEX 01 00:00:00
    TRACK 06 AUDIO
    TITLE "Symphonie Nr. 3 F-dur, Op. 90: IV. Allegro"
    PERFORMER "Concertgebouworkest Amsterdam. Willem Mengelberg, conductor"
    REM DATE 1931
    INDEX 00 05:36:37
    FILE "06 - Symphonie Nr. 3 - IV. Allegro.flac" WAVE
    INDEX 01 00:00:00
    TRACK 07 AUDIO
    TITLE "Tragische Ouvertüre, Op. 81"
    PERFORMER "Concertgebouworkest Amsterdam. Willem Mengelberg, conductor"
    REM DATE 1942
    INDEX 00 09:22:22
    FILE "07 - Tragische Ouvertuere, Op. 81.flac" WAVE
    INDEX 01 00:00:00



  • Показать сообщения:    

    Текущее время: 04-Дек 09:06

    Часовой пояс: UTC + 3


    Вы не можете начинать темы
    Вы не можете отвечать на сообщения
    Вы не можете редактировать свои сообщения
    Вы не можете удалять свои сообщения
    Вы не можете голосовать в опросах
    Вы не можете прикреплять файлы к сообщениям
    Вы не можете скачивать файлы