(Classical / Symphony) Johannes Brahms - Symphonien Nrn. 2 und 4 / Йоханнес Брамс - Симфонии №№ 2 и 4 (Concertgebouworkest Amsterdam, Willem Mengelberg, 1938, 1940) - 2001, FLAC (tracks+.cue) lossless


 

[Цитировать]

Johannes Brahms | Йоханнес Брамс
(1833–1897)



Symphonien Nrn. 2 und 4
Симфонии №№ 2 и 4


Concertgebouworkest Amsterdam
Willem Mengelberg conductor


Жанр: Classical / Symphony
Даты записи: 1938, 1940
Формат записи: ADD, Mono
Год издания диска: 2001
Издатель (лейбл): NAXOS
Номер по каталогу: 8.110158
Аудиокодек: FLAC
Тип рипа: tracks+.cue
Битрейт аудио: lossless
Продолжительность: 1:17:44
Наличие сканов в содержимом раздачи: да
Источник: What.CD
Релизёр: TheLoo


Tracklist / Треклист
Symphonie Nr. 2 D-dur, Op. 73 - 37:12
I. Allegro non troppo - 13:12
  • II. Adagio non troppo. — L'istesso tempo, ma grazioso - 9:34
  • III. Allegretto grazioso (quasi Andantino). — Presto ma non assai - 5:10
  • IV. Allegro con spirito - 9:17
    Recorded: Concertgebouw, Amsterdam, 4 April 1940
    Symphonie Nr. 4 e-moll, Op. 98 - 40:32
    I. Allegro non troppo - 12:32
  • II. Andante moderato - 11:48
  • III. Allegro giocoso. — Poco meno Presto. — Tempo I - 6:23
  • IV. Allegro energico e passionato. — Più Allegro - 9:48
    Recorded: Concertgebouw, Amsterdam, 30 November 1938

    -

    EAC log / Отчёт EAC

    Exact Audio Copy V1.0 beta 6 from 9. April 2015
    EAC extraction logfile from 26. June 2015, 21:57
    Willem Mengelberg & Concertgebouw Orchestra of Amsterdam / Brahms: Symphonies Nos.2 & 4 - Mengelberg
    Used drive : TSSTcorpCDDVDW SH-224BB Adapter: 1 ID: 0
    Read mode : Secure
    Utilize accurate stream : Yes
    Defeat audio cache : Yes
    Make use of C2 pointers : No
    Read offset correction : 6
    Overread into Lead-In and Lead-Out : No
    Fill up missing offset samples with silence : Yes
    Delete leading and trailing silent blocks : No
    Null samples used in CRC calculations : Yes
    Used interface : Native Win32 interface for Win NT & 2000
    Gap handling : Appended to previous track
    Used output format : User Defined Encoder
    Selected bitrate : 896 kBit/s
    Quality : High
    Add ID3 tag : No
    Command line compressor : C:\Program Files (x86)\FLAC\flac.exe
    Additional command line options : -T "artist=%artist%" -T "title=%title%" -T "album=%albumtitle%" -T "date=%year%" -T "tracknumber=%tracknr%" -T "genre=%genre%" -T "composer=%composer%" -5 %source%
    TOC of the extracted CD
    Track | Start | Length | Start sector | End sector
    ---------------------------------------------------------
    1 | 0:00.00 | 13:12.12 | 0 | 59411
    2 | 13:12.12 | 9:33.55 | 59412 | 102441
    3 | 22:45.67 | 5:09.43 | 102442 | 125659
    4 | 27:55.35 | 9:17.02 | 125660 | 167436
    5 | 37:12.37 | 12:32.08 | 167437 | 223844
    6 | 49:44.45 | 11:47.70 | 223845 | 276939
    7 | 61:32.40 | 6:23.20 | 276940 | 305684
    8 | 67:55.60 | 9:48.15 | 305685 | 349799
    Track 1
    Filename E:\EAC Rips\Brahms - Symphonies Nos 2 & 4 - Mengelberg\01 Symphony No.2 in D major, op.73 - I. Allegro non troppo.wav
    Pre-gap length 0:00:02.00
    Peak level 74.1 %
    Extraction speed 5.4 X
    Track quality 99.9 %
    Test CRC C8378FB9
    Copy CRC C8378FB9
    Accurately ripped (confidence 2) [00824219] (AR v2)
    Copy OK
    Track 2
    Filename E:\EAC Rips\Brahms - Symphonies Nos 2 & 4 - Mengelberg\02 Symphony No.2 in D major, op.73 - II. Adagio non troppo.wav
    Pre-gap length 0:00:02.30
    Peak level 63.4 %
    Extraction speed 6.9 X
    Track quality 100.0 %
    Test CRC CB68FD10
    Copy CRC CB68FD10
    Accurately ripped (confidence 2) [245220D1] (AR v2)
    Copy OK
    Track 3
    Filename E:\EAC Rips\Brahms - Symphonies Nos 2 & 4 - Mengelberg\03 Symphony No.2 in D major, op.73 - III. Allegretto grazioso.wav
    Pre-gap length 0:00:02.67
    Peak level 43.4 %
    Extraction speed 7.1 X
    Track quality 100.0 %
    Test CRC B15321EA
    Copy CRC B15321EA
    Accurately ripped (confidence 2) [D0E57BD0] (AR v2)
    Copy OK
    Track 4
    Filename E:\EAC Rips\Brahms - Symphonies Nos 2 & 4 - Mengelberg\04 Symphony No.2 in D major, op.73 - IV. Allegro con spirito.wav
    Pre-gap length 0:00:01.43
    Peak level 100.0 %
    Extraction speed 8.0 X
    Track quality 100.0 %
    Test CRC 1EC12FEB
    Copy CRC 1EC12FEB
    Accurately ripped (confidence 2) [E246B413] (AR v2)
    Copy OK
    Track 5
    Filename E:\EAC Rips\Brahms - Symphonies Nos 2 & 4 - Mengelberg\05 Symphony No.4 in E minor, op.98 - I. Allegro non troppo.wav
    Pre-gap length 0:00:06.00
    Peak level 100.0 %
    Extraction speed 8.8 X
    Track quality 100.0 %
    Test CRC AD1540A4
    Copy CRC AD1540A4
    Accurately ripped (confidence 2) [30B7F8C0] (AR v2)
    Copy OK
    Track 6
    Filename E:\EAC Rips\Brahms - Symphonies Nos 2 & 4 - Mengelberg\06 Symphony No.4 in E minor, op.98 - II. Andante moderato.wav
    Pre-gap length 0:00:02.53
    Peak level 75.4 %
    Extraction speed 9.6 X
    Track quality 100.0 %
    Test CRC 7DCEC22F
    Copy CRC 7DCEC22F
    Accurately ripped (confidence 2) [03EC29C3] (AR v2)
    Copy OK
    Track 7
    Filename E:\EAC Rips\Brahms - Symphonies Nos 2 & 4 - Mengelberg\07 Symphony No.4 in E minor, op.98 - III. Allegro giocoso.wav
    Pre-gap length 0:00:01.58
    Peak level 82.6 %
    Extraction speed 9.6 X
    Track quality 100.0 %
    Test CRC CF7A3741
    Copy CRC CF7A3741
    Accurately ripped (confidence 2) [7F81CFB9] (AR v2)
    Copy OK
    Track 8
    Filename E:\EAC Rips\Brahms - Symphonies Nos 2 & 4 - Mengelberg\08 Symphony No.4 in E minor, op.98 - IV. Allegro energico e passionato.wav
    Pre-gap length 0:00:02.47
    Peak level 77.7 %
    Extraction speed 10.4 X
    Track quality 100.0 %
    Test CRC 1BDA0263
    Copy CRC 1BDA0263
    Accurately ripped (confidence 2) [ECE84394] (AR v2)
    Copy OK
    All tracks accurately ripped
    No errors occurred
    End of status report
    ---- CUETools DB Plugin V2.1.6
    [CTDB TOCID: W8V_l9cb.NF1glWNy7YRnxjqpfs-] found
    Submit result: W8V_l9cb.NF1glWNy7YRnxjqpfs- has been confirmed
    Track | CTDB Status
    1 | (3/3) Accurately ripped
    2 | (3/3) Accurately ripped
    3 | (3/3) Accurately ripped
    4 | (3/3) Accurately ripped
    5 | (3/3) Accurately ripped
    6 | (3/3) Accurately ripped
    7 | (3/3) Accurately ripped
    8 | (3/3) Accurately ripped
    ==== Log checksum 305336227D7B6629683BEB3A593B36D37AB702FCC039DE760C655AF63AC71E2C ====

    auCDtect Task Manager log / Отчёт auCDtect Task Manager

    -----------------------
    DON'T MODIFY THIS FILE
    -----------------------
    PERFORMER: auCDtect Task Manager, ver. 1.5.1RC3 build 1.5.1.4
    Copyright (c) 2008-2010 y-soft. All rights reserved
    ANALYZER: auCDtect: CD records authenticity detector, version 0.8.2
    Copyright (c) 2004 Oleg Berngardt. All rights reserved.
    Copyright (c) 2004 Alexander Djourik. All rights reserved.
    FILE: 05 - Symphonie Nr. 4 - I. Allegro non troppo.flac
    Size: 35490107 Hash: 9B7A6D0173E952A492007AA5AF0FA691 Accuracy: -m0
    Conclusion: CDDA 100%
    Signature: EC2F5010CE426295E548A08A2284D3D752AE4D4C
    FILE: 04 - Symphonie Nr. 2 - IV. Allegro con spirito.flac
    Size: 25536558 Hash: 470231B5580566812F5A7D199173E734 Accuracy: -m0
    Conclusion: CDDA 100%
    Signature: 86AE631166928271AE62E2329480397BB74F5936
    FILE: 03 - Symphonie Nr. 2 - III. Allegretto grazioso (quasi Andantino). - Presto ma non assai.flac
    Size: 12846419 Hash: A836DBD0AD4B33B2DA71990CE87652EF Accuracy: -m0
    Conclusion: CDDA 100%
    Signature: 06A5A94B996FE36B062FD71D7FB7B92FA25BCC8A
    FILE: 02 - Symphonie Nr. 2 - II. Adagio non troppo. - L'istesso tempo, ma grazioso.flac
    Size: 24897762 Hash: 7A2B71A16A7533EA2D4831189F82F523 Accuracy: -m0
    Conclusion: CDDA 100%
    Signature: DD80E81682E1A869053E7CD857049B135A131EEB
    FILE: 01 - Symphonie Nr. 2 - I. Allegro non troppo.flac
    Size: 33978396 Hash: 41D3C6452D02ECD7F8D2F449AA9F8EF0 Accuracy: -m0
    Conclusion: CDDA 100%
    Signature: 1C9F76532E2124F37DAFFB908A6C3A6FE1F3F987
    FILE: 08 - Symphonie Nr. 4 - IV. Allegro energico e passionato. - Piu Allegro.flac
    Size: 26093062 Hash: 08B01F91A4DD9774B5CE445FBC6A8032 Accuracy: -m0
    Conclusion: CDDA 100%
    Signature: A82E358D228FB19C6EC3A136DEC9D37BCB416A90
    FILE: 07 - Symphonie Nr. 4 - III. Allegro giocoso. - Poco meno Presto. - Tempo I.flac
    Size: 17491003 Hash: EBE55A44344DB6BAFDC6284F2CAE09D8 Accuracy: -m0
    Conclusion: CDDA 100%
    Signature: 3D552E71E7DBE619FD4739B1DBF6EC393AD1EDBB
    FILE: 06 - Symphonie Nr. 4 - II. Andante moderato.flac
    Size: 31695008 Hash: 3412819A1AD8B15F2A0000A5A5E8E9C9 Accuracy: -m0
    Conclusion: CDDA 100%
    Signature: 24B8E7233532D328462273A9FE15E926D2667F46

    CUETools log / Отчёт CUETools

    [CUETools log; Date: 03.07.2015 21:09:49; Version: 2.1.4]
    [AccurateRip ID: 001895d5-00a25f9a-88123808] found.
    Track [ CRC | V2 ] Status
    01 [25de0389|00824219] (00+02/10) Accurately ripped
    02 [f6c55caf|245220d1] (00+02/10) Accurately ripped
    03 [c38a0248|d0e57bd0] (00+02/10) Accurately ripped
    04 [88cb3435|e246b413] (00+02/10) Accurately ripped
    05 [bbb7e5ae|30b7f8c0] (00+02/10) Accurately ripped
    06 [2615e56b|03ec29c3] (00+02/10) Accurately ripped
    07 [30a34971|7f81cfb9] (00+02/10) Accurately ripped
    08 [5a0a6701|ece84394] (00+02/10) Accurately ripped
    Offsetted by 30:
    01 [ae515f83] (02/10) Accurately ripped
    02 [93e2111f] (02/10) Accurately ripped
    03 [807d5fcc] (02/10) Accurately ripped
    04 [e22c0121] (02/10) Accurately ripped
    05 [4ab5ef62] (02/10) Accurately ripped
    06 [e90e9acd] (02/10) Accurately ripped
    07 [58c3c665] (02/10) Accurately ripped
    08 [b7ea1697] (02/10) Accurately ripped
    Offsetted by 33:
    01 [08c34f1c] (00/10) No match (V2 was not tested)
    02 [f064eff7] (00/10) No match (V2 was not tested)
    03 [f9c8e926] (00/10) No match (V2 was not tested)
    04 [eb1c159f] (00/10) No match (V2 was not tested)
    05 [d90289f4] (00/10) No match (V2 was not tested)
    06 [62f4468a] (00/10) No match (V2 was not tested)
    07 [dcc70617] (00/10) No match (V2 was not tested)
    08 [27b3a826] (00/10) No match (V2 was not tested)
    Track Peak [ CRC32 ] [W/O NULL] [ LOG ]
    -- 100,0 [07309D3F] [9B0E1C70]
    01 74,1 [C8378FB9] [CB6B88FB] CRC32
    02 63,4 [CB68FD10] [D5B79048] CRC32
    03 43,4 [B15321EA] [E50A567B] CRC32
    04 99,9 [1EC12FEB] [3029A225] CRC32
    05 100,0 [AD1540A4] [CECF1259] CRC32
    06 75,4 [7DCEC22F] [05628CB7] CRC32
    07 82,6 [CF7A3741] [4B227DE6] CRC32
    08 77,7 [1BDA0263] [7875C972] CRC32

    CUE sheet

    TITLE "Johannes Brahms: Symphonien Nrn. 2, 4"
    PERFORMER "Willem Mengelberg"
    REM GENRE Classical
    REM DISCID 88123808
    REM COMMENT "ExactAudioCopy v1.0b6"
    FILE "01 - Symphonie Nr. 2 - I. Allegro non troppo.flac" WAVE
    TRACK 01 AUDIO
    TITLE "Symphonie Nr. 2 D-dur, Op. 73: I. Allegro non troppo"
    PERFORMER "Concertgebouworkest Amsterdam. Willem Mengelberg, conductor"
    REM DATE 1940
    INDEX 01 00:00:00
    TRACK 02 AUDIO
    TITLE "Symphonie Nr. 2 D-dur, Op. 73: II. Adagio non troppo. — L'istesso tempo, ma grazioso"
    PERFORMER "Concertgebouworkest Amsterdam. Willem Mengelberg, conductor"
    REM DATE 1940
    INDEX 00 13:09:57
    FILE "02 - Symphonie Nr. 2 - II. Adagio non troppo. - L'istesso tempo, ma grazioso.flac" WAVE
    INDEX 01 00:00:00
    TRACK 03 AUDIO
    TITLE "Symphonie Nr. 2 D-dur, Op. 73: III. Allegretto grazioso (quasi Andantino). — Presto ma non assai"
    PERFORMER "Concertgebouworkest Amsterdam. Willem Mengelberg, conductor"
    REM DATE 1940
    INDEX 00 09:30:63
    FILE "03 - Symphonie Nr. 2 - III. Allegretto grazioso (quasi Andantino). - Presto ma non assai.flac" WAVE
    INDEX 01 00:00:00
    TRACK 04 AUDIO
    TITLE "Symphonie Nr. 2 D-dur, Op. 73: IV. Allegro con spirito"
    PERFORMER "Concertgebouworkest Amsterdam. Willem Mengelberg, conductor"
    REM DATE 1940
    INDEX 00 05:08:00
    FILE "04 - Symphonie Nr. 2 - IV. Allegro con spirito.flac" WAVE
    INDEX 01 00:00:00
    TRACK 05 AUDIO
    TITLE "Symphonie Nr. 4 e-moll, Op. 98: I. Allegro non troppo"
    PERFORMER "Concertgebouworkest Amsterdam. Willem Mengelberg, conductor"
    REM DATE 1938
    INDEX 00 09:11:02
    FILE "05 - Symphonie Nr. 4 - I. Allegro non troppo.flac" WAVE
    INDEX 01 00:00:00
    TRACK 06 AUDIO
    TITLE "Symphonie Nr. 4 e-moll, Op. 98: II. Andante moderato"
    PERFORMER "Concertgebouworkest Amsterdam. Willem Mengelberg, conductor"
    REM DATE 1938
    INDEX 00 12:29:30
    FILE "06 - Symphonie Nr. 4 - II. Andante moderato.flac" WAVE
    INDEX 01 00:00:00
    TRACK 07 AUDIO
    TITLE "Symphonie Nr. 4 e-moll, Op. 98: III. Allegro giocoso. — Poco meno Presto. — Tempo I"
    PERFORMER "Concertgebouworkest Amsterdam. Willem Mengelberg, conductor"
    REM DATE 1938
    INDEX 00 11:46:12
    FILE "07 - Symphonie Nr. 4 - III. Allegro giocoso. - Poco meno Presto. - Tempo I.flac" WAVE
    INDEX 01 00:00:00
    TRACK 08 AUDIO
    TITLE "Symphonie Nr. 4 e-moll, Op. 98: IV. Allegro energico e passionato. — Più Allegro"
    PERFORMER "Concertgebouworkest Amsterdam. Willem Mengelberg, conductor"
    REM DATE 1938
    INDEX 00 06:20:48
    FILE "08 - Symphonie Nr. 4 - IV. Allegro energico e passionato. - Piu Allegro.flac" WAVE
    INDEX 01 00:00:00
    -



  • Показать сообщения:    

    Текущее время: 08-Дек 21:07

    Часовой пояс: UTC + 3


    Вы не можете начинать темы
    Вы не можете отвечать на сообщения
    Вы не можете редактировать свои сообщения
    Вы не можете удалять свои сообщения
    Вы не можете голосовать в опросах
    Вы не можете прикреплять файлы к сообщениям
    Вы не можете скачивать файлы