Плоть для Франкенштейна / Тело для Франкенштейна / Flesh for Frankenstein (Пол Моррисси / Paul Morrissey, Антонио Маргерити / Antonio Margheriti) [1973, США, Италия, Франция, драма, ужасы, фантастика, DVDRip] MVO (ТВ3)


Статистика раздачи [Обновить пиров]
Размер:  1.46 GB   |    Зарегистрирован:  8 месяцев 21 день   |    Скачан:  0 раз

Полного источника не было: Никогда

 
   
 
 
 

[Цитировать]

Плоть для Франкенштейна / Тело для Франкенштейна / Flesh for Frankenstein
Страна: США, Италия, Франция
Жанр: драма, ужасы, фантастика
Год выпуска: 1973
Продолжительность: 01:34:55
Перевод: Профессиональный (многоголосый закадровый) - ТВ3
Cубтитры: нет

Режиссер: Paul Morrissey / Пол Моррисси, Antonio Margheriti / Антонио Маргерити
В ролях: Удо Кир, Джо Даллесандро, Арно Юргинг, Моник Ван Вурен, Далила Ди Лаццаро
Описание: Барон Франкенштейн одержим идеей мирового господства, для чего из подручных материалов он лепит «идеальных» мужчину и женщину, подчиненных только его власти, и которые, совокупившись, дали бы потомство новой формации — прирожденных рабов Франкенштейна. С девушкой у него все в порядке, но есть проблема с мужчиной — нужна подходящая голова «настоящего самца», дабы он влюбился бы в идеальную женщину с первого взгляда и тут же полез бы с ней в постель… Решив отыскать подобный экземпляр в местном публичном доме, Франкенштей со своим помощником Отто по ошибке обезглавили не совсем того — молодого человека, готовившегося стать монахом…
Качество видео: DVDRip
Формат видео: AVI
Видео: 704x304 (2.32:1), 23.976 fps, XviD build 73 ~1993 kbps avg, 0.39 bit/pixel
Аудио: 48 kHz, AC3 Dolby Digital, 1/0 (C) ch, ~192 kbps

MediaInfo

Общее
Полное имя : H:\Flesh.for.Frankenstein.1973.dvdrip_[1.46]_[teko].avi
Формат : AVI
Формат/Информация : Audio Video Interleave
Размер файла : 1,46 Гбайт
Продолжительность : 1 ч. 34 м.
Общий поток : 2195 Кбит/сек
Программа кодирования : VirtualDubMod 1.5.10.3 | www.virtualdub-fr.org || (build 2550/release)
Библиотека кодирования : VirtualDubMod build 2550/release
Видео
Идентификатор : 0
Формат : MPEG-4 Visual
Профиль формата : Advanced Simple@L5
Параметр BVOP формата : 1
Параметр QPel формата : Нет
Параметр GMC формата : Без точки перехода
Параметр матрицы формата : Выборочная
Идентификатор кодека : XVID
Идентификатор кодека/Подсказка : XviD
Продолжительность : 1 ч. 34 м.
Битрейт : 1994 Кбит/сек
Ширина : 704 пикселя
Высота : 304 пикселя
Соотношение сторон : 2,35:1
Частота кадров : 23,976 кадра/сек
Цветовое пространство : YUV
Субдискретизация насыщенности : 4:2:0
Битовая глубина : 8 бит
Тип развёртки : Прогрессивная
Метод сжатия : С потерями
Бит/(Пиксели*Кадры) : 0.389
Размер потока : 1,32 Гбайт (91%)
Библиотека кодирования : XviD 73
Аудио
Идентификатор : 1
Формат : AC-3
Формат/Информация : Audio Coding 3
Расширение режима : CM (complete main)
Параметр Endianness формата : Big
Идентификатор кодека : 2000
Продолжительность : 1 ч. 34 м.
Вид битрейта : Постоянный
Битрейт : 192 Кбит/сек
Каналы : 1 канал
Расположение каналов : Front: C
Частота : 48,0 КГц
Битовая глубина : 16 бит
Метод сжатия : С потерями
Размер потока : 130 Мбайт (9%)
Выравнивание : Разделение по промежуткам
Продолжительность промежутка : 42 мс. (1,00 видеокадр)
Время предзагрузки промежутка : 500 мс.
[teatrix.ru].t21640.torrent 
Торрент: Зарегистрирован [ 2016-03-20 12:45 ] · 4697B3645B52B28C01A3AC175E010B0F9D4FEE90

Скачать .torrent

Скачать

15 KB

Статус: проверено
Скачан: 0 раз
Размер: 1.46 GB
terms.php



Быстрый ответ

Имя:

      
Для отправки сообщений необходимо включить JavaScript
Показать сообщения:    

Текущее время: 11-Дек 09:12

Часовой пояс: UTC + 3


Вы можете начинать темы
Вы можете отвечать на сообщения
Вы не можете редактировать свои сообщения
Вы не можете удалять свои сообщения
Вы не можете голосовать в опросах
Вы не можете прикреплять файлы к сообщениям
Вы можете скачивать файлы