Большой город / Mahanagar / The Big City (Сатьяджит Рай / Satyajit Ray) [1963, Индия, драма, DVB-AVC] DVO (Kino Polska)


Статистика раздачи [Обновить пиров]
Размер:  703 MB   |    Зарегистрирован:  8 месяцев 14 дней   |    Скачан:  0 раз

Полного источника не было: Никогда

 
   
 
 
 

[Цитировать]

Большой город
Mahanagar- Страна: Индия
Жанр: драма
Год выпуска: 1963
Продолжительность: 02:10:02Перевод: Профессиональный (двухголосый закадровый) по заказу Kino Polska на производственно-технической базе Студии "Акцент"
Cубтитры: нет
Режиссер: Сатьяджит Рай / Satyajit Ray
В ролях: Анил Чаттерджи, Мадхаби Мухерджи, Джая Бхадури, Харен Чаттерджи, Сефалика Деви, Прасенджит Саркар, Харадхан Баннерджи, Вики Редвуд
Описание: Действия фильма разворачиваются в Калькутте в 1950-х годах. Арати вынуждена устроиться на свою первую работу, так как доходов её мужа не хватает для обеспечения семьи. Это решение носит чисто финансовый оттенок и принято, несмотря на сопротивление родственников. Впоследствии Арати приобретает финансовую независимость. В конечном счёте, её муж теряет работу и она становится единственным кормильцем. Они начинают отдаляться друг от друга...
Доп. информация: Filmbox Arthouse IPTV
Награды: "Серебряный медведь" лучшему режиссеру Berlin International Film Festival 1964 + номинация на "Золотой медведь".

Качество видео: DVB-AVC
Формат видео: MKV
Видео: AVC (H.264), 720x576@1024x576 (16:9), 25 fps, ~612 kbps avg, 0.061 bit/pixel
Аудио: MPEG Audio 2, 2 ch, 48 kHz, ~128.00 kbps avg

MediaInfo

Общее
Уникальный идентификатор : 178433245361950198227888910904536693288 (0x863CFE3752F2A6379A8D0A09894D7A28)
Полное имя : F:\My Torrents 3\[apreder]Mahanagar(1963)DVB.mkv
Формат : Matroska
Версия формата : Version 2
Размер файла : 703 Мбайт
Продолжительность : 2 ч. 10 м.
Общий поток : 755 Кбит/сек
Дата кодирования : UTC 2015-07-04 12:02:22
Программа кодирования : mkvmerge v8.1.0 ('Psychedelic Postcard') 64bit
Библиотека кодирования : libebml v1.3.1 + libmatroska v1.4.2
Attachements : cover.jpg / cover_small.jpg
Видео
Идентификатор : 2
Формат : AVC
Формат/Информация : Advanced Video Codec
Профиль формата : Main@L3
Параметр CABAC формата : Да
Параметр ReFrames формата : 3 кадра
Идентификатор кодека : V_MPEG4/ISO/AVC
Продолжительность : 2 ч. 10 м.
Битрейт : 612 Кбит/сек
Ширина : 720 пикселей
Высота : 576 пикселей
Соотношение сторон : 16:9
Соотношение сторон в оригинале : 16:9
Режим частоты кадров : Постоянный
Частота кадров : 24,213 кадра/сек
Частота кадров в оригинале : 25,000 кадров/сек
Стандарт вещания : Component
Цветовое пространство : YUV
Субдискретизация насыщенности : 4:2:0
Битовая глубина : 8 бит
Тип развёртки : Чересстрочная
Порядок развёртки : Верхнее поле первое
Бит/(Пиксели*Кадры) : 0.061
Размер потока : 570 Мбайт (81%)
Default : Да
Forced : Нет
colour_range : Limited
Основные цвета : BT.601 PAL
Характеристики трансфера : BT.470 System B, BT.470 System G
Коэффициенты матрицы : BT.601
Аудио
Идентификатор : 1
Формат : MPEG Audio
Версия формата : Version 1
Профиль формата : Layer 2
Идентификатор кодека : A_MPEG/L2
Идентификатор кодека/Подсказка : MP2
Продолжительность : 2 ч. 10 м.
Вид битрейта : Постоянный
Битрейт : 128 Кбит/сек
Каналы : 2 канала
Частота : 48,0 КГц
Метод сжатия : С потерями
Задержка видео : -7 мс.
Размер потока : 119 Мбайт (17%)
Язык : Russian
Default : Да
Forced : Нет

Скриншот c названием фильма

Скриншоты


Резервные скриншоты


-[2'420]
[teatrix.ru].t21644.torrent 
Торрент: Зарегистрирован [ 2016-03-20 12:48 ] · F3F33FC0394EFF518252B22E6CCA0447AAA36845

Скачать .torrent

Скачать

14 KB

Статус: проверено
Скачан: 0 раз
Размер: 703 MB
terms.php



Быстрый ответ

Имя:

      
Для отправки сообщений необходимо включить JavaScript
Показать сообщения:    

Текущее время: 04-Дек 11:08

Часовой пояс: UTC + 3


Вы можете начинать темы
Вы можете отвечать на сообщения
Вы не можете редактировать свои сообщения
Вы не можете удалять свои сообщения
Вы не можете голосовать в опросах
Вы не можете прикреплять файлы к сообщениям
Вы можете скачивать файлы