(Classical) Georg Philipp Telemann - Kammermusik mit viola da gamba - Ensemble Baroque de Limoges, Christophe Coin - 2011, FLAC (image+.cue) lossless


 

[Цитировать]

Georg Philipp Telemann - Kammermusik mit viola da gamba - Ensemble Baroque de Limoges, Christophe Coin
Жанр: Classical
Страна-производитель диска: France
Год издания диска: 2011
Издатель (лейбл): Naive
Номер по каталогу: E8632
Дата записи: 1997
Аудиокодек: FLAC
Тип рипа: image+.cue
Битрейт аудио: lossless
Продолжительность: 56:15
Источник: собственный рип
Наличие сканов в содержимом раздачи: да
Треклист:
Georg Philipp Telemann (1681-1767)
[1]-[4] Concerto a viola di gamba, flauto traverso, fagotto & cembalo in H minor, TWV 43:H3
[5]-[8] Sonata a violino, viola di gamba & cembalo in F major, TWV 42:F10
[9]-[12] Sonata a flauto traverso, 2 viole di gamba & cembalo in G major, TWV 43:G12
[13]-[16] Sonata a flauto traverso, viola di gamba & cembalo in G minor, TWV 42:G7
[17]-[20] Concerto a flauto traverso, viola di gamba, fagotto, cembalo in C major, TWV 43:C2
Исполнители:
Ensemble Baroque de Limoges
Christophe Coin

Лог создания рипа

Exact Audio Copy V1.0 beta 3 from 29. August 2011
EAC extraction logfile from 30. June 2015, 19:44
Ensemble Baroque de Limoges, Christophe Coin / Telemann - Kammermusik mit Viola da gamba
Used drive : HL-DT-STDVDRAM GU70N Adapter: 0 ID: 0
Read mode : Secure
Utilize accurate stream : Yes
Defeat audio cache : Yes
Make use of C2 pointers : No
Read offset correction : 48
Overread into Lead-In and Lead-Out : No
Fill up missing offset samples with silence : Yes
Delete leading and trailing silent blocks : No
Null samples used in CRC calculations : Yes
Used interface : Native Win32 interface for Win NT & 2000
Used output format : User Defined Encoder
Selected bitrate : 128 kBit/s
Quality : High
Add ID3 tag : No
Command line compressor : C:\Program Files (x86)\Exact Audio Copy\Flac\flac.exe
Additional command line options : -V -8 -T "Date=%year%" -T "Genre=%genre%" %source%
TOC of the extracted CD
Track | Start | Length | Start sector | End sector
---------------------------------------------------------
1 | 0:00.32 | 3:31.40 | 32 | 15896
2 | 3:31.72 | 3:17.03 | 15897 | 30674
3 | 6:49.00 | 1:36.02 | 30675 | 37876
4 | 8:25.02 | 1:50.68 | 37877 | 46194
5 | 10:15.70 | 3:13.60 | 46195 | 60729
6 | 13:29.55 | 2:33.02 | 60730 | 72206
7 | 16:02.57 | 2:42.63 | 72207 | 84419
8 | 18:45.45 | 2:59.35 | 84420 | 97879
9 | 21:45.05 | 3:25.05 | 97880 | 113259
10 | 25:10.10 | 3:47.12 | 113260 | 130296
11 | 28:57.22 | 3:42.38 | 130297 | 146984
12 | 32:39.60 | 4:58.55 | 146985 | 169389
13 | 37:38.40 | 2:37.32 | 169390 | 181196
14 | 40:15.72 | 1:58.35 | 181197 | 190081
15 | 42:14.32 | 1:51.25 | 190082 | 198431
16 | 44:05.57 | 1:16.05 | 198432 | 204136
17 | 45:21.62 | 3:36.15 | 204137 | 220351
18 | 48:58.02 | 2:41.65 | 220352 | 232491
19 | 51:39.67 | 2:04.13 | 232492 | 241804
20 | 53:44.05 | 2:31.25 | 241805 | 253154
Range status and errors
Selected range
Filename C:\temp\Telemann - Kammermusik mit viola da gamba - Ensemble Baroque de Limoges, Coin\Telemann - Kammermusik mit Viola da gamba.wav
Peak level 99.8 %
Extraction speed 5.0 X
Range quality 100.0 %
Test CRC 87FEF6AA
Copy CRC 87FEF6AA
Copy OK
No errors occurred
AccurateRip summary
Track 1 accurately ripped (confidence 4) [40D7266C] (AR v2)
Track 2 accurately ripped (confidence 4) [31B5D226] (AR v2)
Track 3 accurately ripped (confidence 4) [05B425FF] (AR v2)
Track 4 accurately ripped (confidence 4) [C90C74E6] (AR v2)
Track 5 accurately ripped (confidence 4) [40AEC82F] (AR v2)
Track 6 accurately ripped (confidence 4) [5A32C3AD] (AR v2)
Track 7 accurately ripped (confidence 4) [9C8E10CD] (AR v2)
Track 8 accurately ripped (confidence 4) [7AC1D0FC] (AR v2)
Track 9 accurately ripped (confidence 4) [1FD3C596] (AR v2)
Track 10 accurately ripped (confidence 4) [6D3BFD39] (AR v2)
Track 11 accurately ripped (confidence 4) [8AB80282] (AR v2)
Track 12 accurately ripped (confidence 4) [A8352166] (AR v2)
Track 13 accurately ripped (confidence 4) [F7188317] (AR v2)
Track 14 accurately ripped (confidence 4) [AB4C97EC] (AR v2)
Track 15 accurately ripped (confidence 4) [47F6321E] (AR v2)
Track 16 accurately ripped (confidence 4) [9C235813] (AR v2)
Track 17 accurately ripped (confidence 4) [B0819B6B] (AR v2)
Track 18 accurately ripped (confidence 4) [45A8E6E1] (AR v2)
Track 19 accurately ripped (confidence 4) [283CE741] (AR v2)
Track 20 accurately ripped (confidence 4) [50F8C142] (AR v2)
All tracks accurately ripped
End of status report
==== Log checksum 2E08C714454FB05C0C1EBF4E46D76ACEEE57523074827DC170583AFFC95F2939 ====



Показать сообщения:    

Текущее время: 11-Дек 16:54

Часовой пояс: UTC + 3


Вы не можете начинать темы
Вы не можете отвечать на сообщения
Вы не можете редактировать свои сообщения
Вы не можете удалять свои сообщения
Вы не можете голосовать в опросах
Вы не можете прикреплять файлы к сообщениям
Вы не можете скачивать файлы