Скандал / Scandal / Shubun (Акира Куросава / Akira Kurosawa) [1950, Япония, драма, DVB-AVC] DVO (Kino Polska)


Статистика раздачи [Обновить пиров]
Размер:  552 MB   |    Зарегистрирован:  8 месяцев 21 день   |    Скачан:  0 раз

Полного источника не было: Никогда

 
   
 
 
 

[Цитировать]

Скандал
Shûbun- Страна: Япония
Жанр: драма
Год выпуска: 1950
Продолжительность: 01:44:37Перевод: Профессиональный (двухголосый закадровый) по заказу Kino Polska на производственно-технической базе Студии "Акцент"
Cубтитры: нет
Режиссер: Акира Куросава / Akira Kurosawa
В ролях: Тосиро Мифунэ, Йосико Ямагути, Такаси Симура, Йоко Кацураги, Норико Сэнгоку, Эйтаро Одзава, Бокудзэн Хидари
Описание: Действие происходит в Японии в 1949 году. Художник Итиро Аоэ отдыхает в горах и случайно встречается с популярной певицей Мияко Сайдзё, которая остановилась в том же отеле. Молодые люди знакомятся и обмениваются парой слов. Когда Итиро возвращается в город, то видит, что кругом расклеены их с Мияко фотографии, а в журнале "Амур" опубликована статья с подробным описанием предполагаемого романа. Итиро не желает спускать газетчикам клевету и хочет подать в суд на "Амур"...
Доп. информация: Filmbox Arthouse IPTV

Качество видео: DVB-AVC
Формат видео: MKV
Видео: AVC (H.264), 720x576@1024x576 (16:9), 25 fps, ~595 kbps avg, 0.057 bit/pixel
Аудио: MPEG Audio 2, 2 ch, 48 kHz, ~128.00 kbps avg

MediaInfo

Общее
Уникальный идентификатор : 248350494343336029343795983030286682053 (0xBAD690BC79EFEE6A9A01D32A6E9607C5)
Полное имя : F:\My Torrents 3\[apreder]Scandal(1950)DVB.mkv
Формат : Matroska
Версия формата : Version 2
Размер файла : 552 Мбайт
Продолжительность : 1 ч. 44 м.
Общий поток : 738 Кбит/сек
Дата кодирования : UTC 2015-07-04 19:27:00
Программа кодирования : mkvmerge v8.1.0 ('Psychedelic Postcard') 64bit
Библиотека кодирования : libebml v1.3.1 + libmatroska v1.4.2
Attachements : cover.jpg / cover_small.jpg
Видео
Идентификатор : 2
Формат : AVC
Формат/Информация : Advanced Video Codec
Профиль формата : Main@L3
Параметр CABAC формата : Да
Параметр ReFrames формата : 3 кадра
Идентификатор кодека : V_MPEG4/ISO/AVC
Продолжительность : 1 ч. 44 м.
Битрейт : 595 Кбит/сек
Ширина : 720 пикселей
Высота : 576 пикселей
Соотношение сторон : 16:9
Соотношение сторон в оригинале : 16:9
Режим частоты кадров : Постоянный
Частота кадров : 25,000 кадров/сек
Стандарт вещания : Component
Цветовое пространство : YUV
Субдискретизация насыщенности : 4:2:0
Битовая глубина : 8 бит
Тип развёртки : Чересстрочная
Порядок развёртки : Верхнее поле первое
Бит/(Пиксели*Кадры) : 0.057
Размер потока : 445 Мбайт (81%)
Default : Да
Forced : Нет
colour_range : Limited
Основные цвета : BT.601 PAL
Характеристики трансфера : BT.470 System B, BT.470 System G
Коэффициенты матрицы : BT.601
Аудио
Идентификатор : 1
Формат : MPEG Audio
Версия формата : Version 1
Профиль формата : Layer 2
Идентификатор кодека : A_MPEG/L2
Идентификатор кодека/Подсказка : MP2
Продолжительность : 1 ч. 44 м.
Вид битрейта : Постоянный
Битрейт : 128 Кбит/сек
Каналы : 2 канала
Частота : 48,0 КГц
Метод сжатия : С потерями
Размер потока : 95,8 Мбайт (17%)
Язык : Russian
Default : Да
Forced : Нет

Скриншот c названием фильма

Скриншоты


Резервные скриншоты


-[2'427]
[teatrix.ru].t21650.torrent 
Торрент: Зарегистрирован [ 2016-03-20 12:47 ] · 5A18A5D81B6D114050AA873E1F8ECD76C7DAED86

Скачать .torrent

Скачать

11 KB

Статус: проверено
Скачан: 0 раз
Размер: 552 MB
terms.php



Быстрый ответ

Имя:

      
Для отправки сообщений необходимо включить JavaScript
Показать сообщения:    

Текущее время: 10-Дек 15:46

Часовой пояс: UTC + 3


Вы можете начинать темы
Вы можете отвечать на сообщения
Вы не можете редактировать свои сообщения
Вы не можете удалять свои сообщения
Вы не можете голосовать в опросах
Вы не можете прикреплять файлы к сообщениям
Вы можете скачивать файлы