(Classical) Чапи – Симфония, скерцо, «Рожер де Флор» (увертюра) / Chapi – Obra sinfonica: Symphony, scherzo (Don Quijote) & overture to «Roger de Flor» (Герасим Воронков / Guerassim Voronkov) - 2007/2008, FLAC (image+.cue) lossless


 

[Цитировать]

Чапи – Симфония, скерцо, «Рожер де Флор» (увертюра) / Chapí – Obra sinfónica: Symphony, scherzo (Don Quijote) & overture to «Roger de Flor» (Герасим Воронков / Guerassim Voronkov)
Жанр: Classical
Страна-производитель диска: Испания?
Год издания диска: 2007 или 2008
Издатель (лейбл): Columna música
Номер по каталогу: 1CM0176
Дата записи: 3, 4, 17 и 18 января 2007 г., Барселона.
Аудиокодек: FLAC
Тип рипа: image+.cue
Битрейт аудио: lossless
Продолжительность: 01:01:12
Источник: odeonmusic
Наличие сканов в содержимом раздачи: да
Треклист:-Руперто Чапи-и-Лоренте (1851 — 1909).-Симфония d-moll (первое исп. 1879).
01. I. Adagio [10:55].
02. II. Andante con moto, molto espressivo [14:34].
03. III. Presto [08:54].
04. IV. Molto allegro e vivace [06:30].
«Рожер де Флор», опера в трех действиях (первая пост. 1878).
05. Увертюра [12:12].
06. Скерцо (сражение Дон Кихота с овцами) E-dur для оркестра (1869) [08:01].-Исполнители:
Orquestra de l'Acadèmia del Gran Teatre del Liceu.
Дирижер Герасим Воронков.-

Лог создания рипа

Exact Audio Copy V1.0 beta 3 from 29. August 2011
EAC extraction logfile from 6. August 2012, 17:13
Guerassim Voronkov / Chapi - Obra sinfónica - Voronkov
Used drive : HL-DT-STDVDRAM GSA-H10A Adapter: 0 ID: 0
Read mode : Secure
Utilize accurate stream : Yes
Defeat audio cache : Yes
Make use of C2 pointers : No
Read offset correction : 667
Overread into Lead-In and Lead-Out : No
Fill up missing offset samples with silence : Yes
Delete leading and trailing silent blocks : No
Null samples used in CRC calculations : Yes
Used interface : Native Win32 interface for Win NT & 2000
Used output format : User Defined Encoder
Selected bitrate : 1024 kBit/s
Quality : High
Add ID3 tag : No
Command line compressor : C:\Program Files\Exact Audio Copy\Flac\flac.exe
Additional command line options : -8 -V -T "TITLE=%title%" -T "ARTIST=%artist%" -T "ALBUMARTIST=%albumartist%" -T "ALBUM=%albumtitle%" -T "DATE=%year%" -T "TRACKNUMBER=%tracknr%" -T "TRACKTOTAL=%numtracks%" -T "GENRE=%genre%" -T "COMMENT=%comment%" -T "PERFORMER=%albuminterpret%" -T "COMPOSER=%composer%" %source% -o %dest%
TOC of the extracted CD
Track | Start | Length | Start sector | End sector
---------------------------------------------------------
1 | 0:00.00 | 11:02.34 | 0 | 49683
2 | 11:02.34 | 14:38.34 | 49684 | 115567
3 | 25:40.68 | 8:39.06 | 115568 | 154498
4 | 34:19.74 | 6:33.59 | 154499 | 184032
5 | 40:53.58 | 12:11.03 | 184033 | 238860
6 | 53:04.61 | 8:07.21 | 238861 | 275406
Range status and errors
Selected range
Filename F:\Ripped general\[9692] Chapi - Obra sinfónica - Voronkov\Chapi - Obra sinfónica - Voronkov.wav
Peak level 100.0 %
Extraction speed 7.5 X
Range quality 100.0 %
Test CRC 95D7C496
Copy CRC 95D7C496
Copy OK
No errors occurred
AccurateRip summary
Track 1 not present in database
Track 2 not present in database
Track 3 not present in database
Track 4 not present in database
Track 5 not present in database
Track 6 not present in database
None of the tracks are present in the AccurateRip database
End of status report

Содержание индексной карты (.CUE)

REM GENRE Classical
REM DISCID 490E5806
REM COMMENT "ExactAudioCopy v1.0b3"
PERFORMER "Guerassim Voronkov"
TITLE "Chapi – Obra sinfonica – Guerassim Voronkov"
FILE "Chapi – Obra sinfonica – Guerassim Voronkov.flac" WAVE
TRACK 01 AUDIO
TITLE "Simfonia en Re - I. Adagio"
PERFORMER "Guerassim Voronkov"
FLAGS DCP
INDEX 01 00:00:00
TRACK 02 AUDIO
TITLE "Simfonia en Re - II. Andante con moto, molto espressivo"
PERFORMER "Guerassim Voronkov"
FLAGS DCP
INDEX 01 11:02:34
TRACK 03 AUDIO
TITLE "Simfonia en Re - III. Presto"
PERFORMER "Guerassim Voronkov"
FLAGS DCP
INDEX 01 25:40:68
TRACK 04 AUDIO
TITLE "Simfonia en Re - IV. Molto allegro e vivace"
PERFORMER "Guerassim Voronkov"
FLAGS DCP
INDEX 01 34:19:74
TRACK 05 AUDIO
TITLE "Obertura de l'opera Roger de Flor"
PERFORMER "Guerassim Voronkov"
FLAGS DCP
INDEX 01 40:53:58
TRACK 06 AUDIO
TITLE "Scherzo 'Combate de Don Quijote contra las ovejas'"
PERFORMER "Guerassim Voronkov"
FLAGS DCP
INDEX 01 53:04:61

Вариант индексной карты (.CUE) с выставленными зазорами

REM GENRE Classical
REM DISCID 490E5806
REM COMMENT "ExactAudioCopy v1.0b3"
PERFORMER "Guerassim Voronkov"
TITLE "Chapi – Obra sinfonica – Guerassim Voronkov"
FILE "Chapi – Obra sinfonica – Guerassim Voronkov.flac" WAVE
TRACK 01 AUDIO
FLAGS DCP
TITLE "Simfonia en Re - I. Adagio"
PERFORMER "Guerassim Voronkov"
INDEX 00 00:00:00
INDEX 01 00:00:38
TRACK 02 AUDIO
FLAGS DCP
TITLE "Simfonia en Re - II. Andante con moto, molto espressivo"
PERFORMER "Guerassim Voronkov"
INDEX 00 11:00:73
INDEX 01 11:02:34
TRACK 03 AUDIO
FLAGS DCP
TITLE "Simfonia en Re - III. Presto"
PERFORMER "Guerassim Voronkov"
INDEX 00 25:38:73
INDEX 01 25:40:68
TRACK 04 AUDIO
FLAGS DCP
TITLE "Simfonia en Re - IV. Molto allegro e vivace"
PERFORMER "Guerassim Voronkov"
INDEX 00 34:18:44
INDEX 01 34:19:74
TRACK 05 AUDIO
FLAGS DCP
TITLE "Obertura de l'opera Roger de Flor"
PERFORMER "Guerassim Voronkov"
INDEX 00 40:50:08
INDEX 01 40:53:58
TRACK 06 AUDIO
FLAGS DCP
TITLE "Scherzo 'Combate de Don Quijote contra las ovejas'"
PERFORMER "Guerassim Voronkov"
INDEX 00 52:58:71
INDEX 01 53:04:61
INDEX 02 61:09:02
-



Показать сообщения:    

Текущее время: 03-Дек 20:45

Часовой пояс: UTC + 3


Вы не можете начинать темы
Вы не можете отвечать на сообщения
Вы не можете редактировать свои сообщения
Вы не можете удалять свои сообщения
Вы не можете голосовать в опросах
Вы не можете прикреплять файлы к сообщениям
Вы не можете скачивать файлы