(Classical / Symphony / Orchestral) Ernest Chausson - Symphonie en si bemol majeur • «Viviane» / Эрнест Шоссон - Симфония си-бемоль мажор • «Вивиана» (Basler Sinfonie-Orchester, Armin Jordan, 1985) - 1986, FLAC (tracks+.cue) lossless


 

[Цитировать]

Ernest Chausson | Эрнест Шоссон
(1855–1899)



Symphonie en si bémol majeur | «Viviane»
Симфония си-бемоль мажор | «Вивиана»


Basler Sinfonie-Orchester
Armin Jordan conductor


Жанр: Classical / Symphony / Orchestral
Дата и место записи: Martinskirche, Basel, April 1985
Формат записи: DDD, Stereo
Год издания диска: 1986
Издатель (лейбл): Erato
Номер по каталогу: ECD 88169
Аудиокодек: FLAC
Тип рипа: tracks+.cue
Битрейт аудио: lossless
Продолжительность: 48:27
Наличие сканов в содержимом раздачи: нет
Источник: What.CD
Релизёр: nibelune


Tracklist / Треклист
Symphonie en si bémol majeur, Op. 20 - 36:35
I. Lent. — Allegro vivo - 13:08
  • II. Très lent - 9:23
  • III. Animé - 14:04
    «Viviane», poème symphonique sur la légende des Chevaliers de la Table ronde, Op. 5 - 11:51

    -

    EAC log / Отчёт EAC

    Exact Audio Copy V1.0 beta 4 from 7. December 2014
    EAC extraction logfile from 23. March 2015, 1:25
    Ernest Chausson / Symphonie Op.20 en si bemol majeur, Viviane Op.5
    Used drive : HL-DT-STRW/DVD GCC-4242N Adapter: 1 ID: 0
    Read mode : Secure
    Utilize accurate stream : Yes
    Defeat audio cache : Yes
    Make use of C2 pointers : No
    Read offset correction : 102
    Overread into Lead-In and Lead-Out : No
    Fill up missing offset samples with silence : Yes
    Delete leading and trailing silent blocks : No
    Null samples used in CRC calculations : Yes
    Used interface : Native Win32 interface for Win NT & 2000
    Gap handling : Appended to previous track
    Used output format : User Defined Encoder
    Selected bitrate : 1024 kBit/s
    Quality : High
    Add ID3 tag : No
    Command line compressor : C:\Program Files\Exact Audio Copy\FLAC\FLAC.EXE
    Additional command line options : -8 -V -T "ARTIST=%artist%" -T "TITLE=%title%" -T "ALBUM=%albumtitle%" -T "DATE=%year%" -T "TRACKNUMBER=%tracknr%" -T "GENRE=%genre%" -T "PERFORMER=%albuminterpret%" -T "COMPOSER=%composer%" %haslyrics%--tag-from-file=LYRICS="%lyricsfile%"%haslyrics% -T "ALBUMARTIST=%albumartist%" -T "DISCNUMBER=%cdnumber%" -T "TOTALDISCS=%totalcds%" -T "TOTALTRACKS=%numtracks%" -T "COMMENT=%comment%" %source% -o %dest%
    TOC of the extracted CD
    Track | Start | Length | Start sector | End sector
    ---------------------------------------------------------
    1 | 0:00.33 | 13:08.05 | 33 | 59137
    2 | 13:08.38 | 9:22.72 | 59138 | 101359
    3 | 22:31.35 | 14:04.33 | 101360 | 164692
    4 | 36:35.68 | 11:51.07 | 164693 | 218024
    Track 1
    Filename C:\EAC\01 - 1 lent-Allegro-Vivo.wav
    Pre-gap length 0:00:02.44
    Peak level 93.2 %
    Extraction speed 2.4 X
    Track quality 100.0 %
    Test CRC CE1A5B40
    Copy CRC CE1A5B40
    Accurately ripped (confidence 2) [4C4DA4CC] (AR v2)
    Copy OK
    Track 2
    Filename C:\EAC\02 - 2 Tres lent.wav
    Pre-gap length 0:00:06.64
    Peak level 96.5 %
    Extraction speed 2.9 X
    Track quality 100.0 %
    Test CRC B54E094B
    Copy CRC B54E094B
    Accurately ripped (confidence 2) [1A989447] (AR v1)
    Copy OK
    Track 3
    Filename C:\EAC\03 - 3 Anime.wav
    Pre-gap length 0:00:04.09
    Peak level 78.3 %
    Extraction speed 3.4 X
    Track quality 100.0 %
    Test CRC ED4BA314
    Copy CRC ED4BA314
    Accurately ripped (confidence 2) [D017370C] (AR v1)
    Copy OK
    Track 4
    Filename C:\EAC\04 - Viviane Poeme symphonique Op.5.wav
    Pre-gap length 0:00:05.57
    Peak level 78.2 %
    Extraction speed 3.8 X
    Track quality 100.0 %
    Test CRC F28798E2
    Copy CRC F28798E2
    Accurately ripped (confidence 2) [71331A03] (AR v1)
    Copy OK
    All tracks accurately ripped
    No errors occurred
    End of status report
    ---- CUETools DB Plugin V2.1.4
    [CTDB TOCID: KNAZUYKSyXoJv4g0NyoVq9TS7_w-] found
    Submit result: La demande a été abandonnée : La demande a été annulée.
    Track | CTDB Status
    1 | (1/1) Accurately ripped
    2 | (1/1) Accurately ripped
    3 | (0/1) No match
    4 | (1/1) Accurately ripped
    ==== Log checksum 1A6EBA095E47CB4C5C0782334B1D46F6C93FAFED3066C0F1DE38C9825E34661E ====

    auCDtect Task Manager log / Отчёт auCDtect Task Manager

    -----------------------
    DON'T MODIFY THIS FILE
    -----------------------
    PERFORMER: auCDtect Task Manager, ver. 1.5.1RC3 build 1.5.1.4
    Copyright (c) 2008-2010 y-soft. All rights reserved
    ANALYZER: auCDtect: CD records authenticity detector, version 0.8.2
    Copyright (c) 2004 Oleg Berngardt. All rights reserved.
    Copyright (c) 2004 Alexander Djourik. All rights reserved.
    FILE: 03 - Symphonie en si bemol majeur, Op. 20 - III. Anime.flac
    Size: 59455247 Hash: D7D33187521EFD64E9678D7DF82ACB6D Accuracy: -m0
    Conclusion: CDDA 100%
    Signature: 5463C1537BFE7657A9968916F4489026B41B8094
    FILE: 02 - Symphonie en si bemol majeur, Op. 20 - II. Tres lent.flac
    Size: 36582730 Hash: E191846051FBDDCB538CA150BA1BDC48 Accuracy: -m0
    Conclusion: CDDA 99%
    Signature: 7C458BDFF79A5C73028FCBC46B9B6C43079BEB93
    FILE: 01 - Symphonie en si bemol majeur, Op. 20 - I. Lent. - Allegro vivo.flac
    Size: 55658628 Hash: 1672D3DED259626A1B08F347A2F74878 Accuracy: -m0
    Conclusion: CDDA 99%
    Signature: 13CE4CABA857A8CC1A0DCFA43A3D75AF28B25C01
    FILE: 04 - ''Viviane'', poeme symphonique, Op. 5.flac
    Size: 44804089 Hash: 7FF65275EA0CC06D7BAE263B201C3ED9 Accuracy: -m0
    Conclusion: CDDA 99%
    Signature: 40CDD336172C4121E2F62D0AFEDDFDB4D281492A

    CUETools log / Отчёт CUETools

    [CUETools log; Date: 05.07.2015 14:34:32; Version: 2.1.4]
    Pregap length 00:00:33.
    [AccurateRip ID: 00084a11-00212196-310b5b04] found.
    Track [ CRC | V2 ] Status
    01 [b6e1fcef|4c4da4cc] (2+2/4) Accurately ripped
    02 [1a989447|a20da5a8] (2+0/2) Accurately ripped
    03 [d017370c|18eae2aa] (2+0/2) Accurately ripped
    04 [71331a03|904c4eee] (2+0/2) Accurately ripped
    Track Peak [ CRC32 ] [W/O NULL] [ LOG ]
    -- 96,5 [B640983E] [E2431145]
    01 93,2 [CE1A5B40] [8A349830] CRC32
    02 96,5 [B54E094B] [CD325636] CRC32
    03 78,2 [ED4BA314] [6293FC28] CRC32
    04 78,2 [F28798E2] [6D70BBE5] CRC32

    CUE sheet

    TITLE "Ernest Chausson: Symphonie en si bémol majeur • Viviane"
    PERFORMER "Armin Jordan"
    REM GENRE Classical
    REM DISCID 310B5B04
    REM COMMENT "ExactAudioCopy v1.0b4"
    CATALOG 0000000000000
    FILE "01 - Symphonie en si bemol majeur, Op. 20 - I. Lent. - Allegro vivo.flac" WAVE
    TRACK 01 AUDIO
    TITLE "Symphonie en si bémol majeur, Op. 20: I. Lent. — Allegro vivo"
    PERFORMER "Basler Sinfonie-Orchester. Armin Jordan, conductor"
    REM DATE 1985
    PREGAP 00:00:33
    INDEX 01 00:00:00
    TRACK 02 AUDIO
    TITLE "Symphonie en si bémol majeur, Op. 20: II. Très lent"
    PERFORMER "Basler Sinfonie-Orchester. Armin Jordan, conductor"
    REM DATE 1985
    INDEX 00 13:01:32
    FILE "02 - Symphonie en si bemol majeur, Op. 20 - II. Tres lent.flac" WAVE
    INDEX 01 00:00:00
    TRACK 03 AUDIO
    TITLE "Symphonie en si bémol majeur, Op. 20: III. Animé"
    PERFORMER "Basler Sinfonie-Orchester. Armin Jordan, conductor"
    REM DATE 1985
    INDEX 00 09:18:65
    FILE "03 - Symphonie en si bemol majeur, Op. 20 - III. Anime.flac" WAVE
    INDEX 01 00:00:00
    TRACK 04 AUDIO
    TITLE "«Viviane», poème symphonique sur la légende des Chevaliers de la Table ronde, Op. 5"
    PERFORMER "Basler Sinfonie-Orchester. Armin Jordan, conductor"
    REM DATE 1985
    INDEX 00 13:58:65
    FILE "04 - ''Viviane'', poeme symphonique, Op. 5.flac" WAVE
    INDEX 01 00:00:00
    -



  • Показать сообщения:    

    Текущее время: 10-Дек 23:25

    Часовой пояс: UTC + 3


    Вы не можете начинать темы
    Вы не можете отвечать на сообщения
    Вы не можете редактировать свои сообщения
    Вы не можете удалять свои сообщения
    Вы не можете голосовать в опросах
    Вы не можете прикреплять файлы к сообщениям
    Вы не можете скачивать файлы