(Orchestral) Gustav Mahler - Symphonie Nr.3 | Hector Berlioz - Romeo et Juliette [excerpts] (Yvonne Minton | BBC Symphony Orchestra | New York Philharmonic Orchestra | Pierre Boulez) - 1993, FLAC (image+.cue) lossless


 

[Цитировать]

PIERRE BOULEZ conducts
GUSTAV MAHLER - Symphony N.3 in D minor
HECTOR BERLIOZ - Romeo et Juliette (excerpts)
BBC Symphony Orchestra | New York Philharmonic Orchestra
--- Жанр: Orchestral
Страна-производитель диска: Italy
Год издания диска: 1993
Издатель (лейбл): Artists
Дата записи: 1974/75
Аудиокодек: FLAC
Тип рипа: image+.cue
Битрейт аудио: lossless
Продолжительность: 2:11'12''
Источник: собственный рип
Наличие сканов в содержимом раздачи: да
Треклист:

CD1

[01] Mahler - Symphonie Nr.3: I. Kräftig. Entschieden
[02] II. Tempo di minuetto. Sehr mässig
[03] III. Comodo. Scherzando
[04] IV. Sehr langsam. Misterioso
[05] V. Lustig im Tempo und keck im Ausdruck

Лог создания рипа

Exact Audio Copy V1.0 beta 4 from 7. December 2014
EAC extraction logfile from 27. April 2015, 23:44
BBC Symphony Orchestra - Pierre Boulez / Mahler - Symphonie Nr.3 (CD1)
Used drive : HL-DT-STDVD+-RW GU90N Adapter: 1 ID: 0
Read mode : Secure
Utilize accurate stream : Yes
Defeat audio cache : Yes
Make use of C2 pointers : No
Read offset correction : 102
Overread into Lead-In and Lead-Out : No
Fill up missing offset samples with silence : Yes
Delete leading and trailing silent blocks : No
Null samples used in CRC calculations : Yes
Used interface : Native Win32 interface for Win NT & 2000
Used output format : User Defined Encoder
Selected bitrate : 1024 kBit/s
Quality : High
Add ID3 tag : No
Command line compressor : C:\Program Files (x86)\FLAC\flac.exe
Additional command line options : -T "COMMENT=rip by el coronel" -8 -V %source%
TOC of the extracted CD
Track | Start | Length | Start sector | End sector
---------------------------------------------------------
1 | 0:00.33 | 33:48.25 | 33 | 152157
2 | 33:48.58 | 9:32.50 | 152158 | 195107
3 | 43:21.33 | 16:28.00 | 195108 | 269207
4 | 59:49.33 | 9:24.25 | 269208 | 311532
5 | 69:13.58 | 4:13.50 | 311533 | 330557
Range status and errors
Selected range
Filename F:\Music\Mahler 3 - BBC, Boulez\CD1.wav
Peak level 100.0 %
Extraction speed 4.6 X
Range quality 100.0 %
Test CRC 933CC030
Copy CRC 933CC030
Copy OK
No errors occurred
AccurateRip summary
Track 1 not present in database
Track 2 not present in database
Track 3 not present in database
Track 4 not present in database
Track 5 not present in database
None of the tracks are present in the AccurateRip database
End of status report
---- CUETools DB Plugin V2.1.4
[CTDB TOCID: T_ex8JZ3QsahjhBsWMa4n9UiwA0-] found
Submit result: T_ex8JZ3QsahjhBsWMa4n9UiwA0- has been confirmed
Track | CTDB Status
1 | (1/1) Accurately ripped
2 | (1/1) Accurately ripped
3 | (1/1) Accurately ripped
4 | (1/1) Accurately ripped
5 | (1/1) Accurately ripped
==== Log checksum 7DA4068BE2E5D7D96665BA329B1E0DA9E96E159BACDE9DB8509949FEF2F3375F ====

Содержание индексной карты (.CUE)

REM GENRE Classical
REM DATE 1993
REM DISCID 33113705
REM COMMENT "ExactAudioCopy v1.0b4"
PERFORMER "BBC Symphony Orchestra - Pierre Boulez"
TITLE "Mahler - Symphonie Nr.3 (CD1)"
FILE "CD1.flac" WAVE
TRACK 01 AUDIO
TITLE "Mahler - Symphonie Nr.3: I. Kraftig. Entschieden"
PERFORMER "BBC Symphony Orchestra - Pierre Boulez"
INDEX 00 00:00:00
INDEX 01 00:00:33
TRACK 02 AUDIO
TITLE "II. Tempo di minuetto. Sehr massig"
PERFORMER "BBC Symphony Orchestra - Pierre Boulez"
INDEX 00 33:43:33
INDEX 01 33:48:58
TRACK 03 AUDIO
TITLE "III. Comodo. Scherzando"
PERFORMER "BBC Symphony Orchestra - Pierre Boulez"
INDEX 01 43:21:33
TRACK 04 AUDIO
TITLE "IV. Sehr langsam. Misterioso"
PERFORMER "BBC Symphony Orchestra - Pierre Boulez"
INDEX 01 59:49:33
TRACK 05 AUDIO
TITLE "V. Lustig im Tempo und keck im Ausdruck"
PERFORMER "BBC Symphony Orchestra - Pierre Boulez"
INDEX 01 69:13:58

CD2

[01] Mahler - Symphonie Nr.3: VI. Langsam. Ruhevoll. Empfunden
[02] Berlioz - 'Romeo et Juliette' excerpts

Лог создания рипа

Exact Audio Copy V1.0 beta 4 from 7. December 2014
EAC extraction logfile from 27. April 2015, 22:48
BBC Symphony Orchestra - Pierre Boulez / Mahler - Symphonie Nr.3 (CD2)
Used drive : HL-DT-STDVD+-RW GU90N Adapter: 1 ID: 0
Read mode : Secure
Utilize accurate stream : Yes
Defeat audio cache : Yes
Make use of C2 pointers : No
Read offset correction : 102
Overread into Lead-In and Lead-Out : No
Fill up missing offset samples with silence : Yes
Delete leading and trailing silent blocks : No
Null samples used in CRC calculations : Yes
Used interface : Native Win32 interface for Win NT & 2000
Used output format : User Defined Encoder
Selected bitrate : 1024 kBit/s
Quality : High
Add ID3 tag : No
Command line compressor : C:\Program Files (x86)\FLAC\flac.exe
Additional command line options : -T "COMMENT=rip by el coronel" -8 -V %source%
TOC of the extracted CD
Track | Start | Length | Start sector | End sector
---------------------------------------------------------
1 | 0:00.33 | 22:52.50 | 33 | 102982
2 | 22:53.08 | 34:52.25 | 102983 | 259907
Range status and errors
Selected range
Filename F:\Music\Mahler 3 - BBC, Boulez\CD1.wav
Peak level 100.0 %
Extraction speed 4.3 X
Range quality 99.9 %
Test CRC D52C16D0
Copy CRC D52C16D0
Copy OK
No errors occurred
AccurateRip summary
Track 1 not present in database
Track 2 not present in database
None of the tracks are present in the AccurateRip database
End of status report
---- CUETools DB Plugin V2.1.4
[CTDB TOCID: MwGFKE9c_kEepehgF.W.WLwAohM-] found
Submit result: MwGFKE9c_kEepehgF.W.WLwAohM- has been confirmed
Track | CTDB Status
1 | (1/1) Accurately ripped
2 | (1/1) Accurately ripped
==== Log checksum CC4EFAF9C1D3E4EFAE0734ABD7AF046C5C00DAE542F7696B4373455FC8D31509 ====

Содержание индексной карты (.CUE)

REM GENRE Classical
REM DATE 1993
REM DISCID 120D8902
REM COMMENT ExactAudioCopy v1.0b4
PERFORMER "BBC Symphony Orchestra - Pierre Boulez"
TITLE "Mahler - Symphonie Nr.3 (CD2)"
FILE "CD2.flac" WAVE
TRACK 01 AUDIO
TITLE "Mahler - Symphonie Nr.3: VI. Langsam. Ruhevoll. Empfunden"
PERFORMER "BBC Symphony Orchestra - Pierre Boulez"
INDEX 00 00:00:00
INDEX 01 00:00:33
TRACK 02 AUDIO
TITLE "Berlioz - 'Romeo et Juliette' excerpts"
PERFORMER "New York Philharmonic - Pierre Boulez"
INDEX 00 22:46:33
INDEX 01 22:53:08
Исполнители:
Yvonne Minton - mezzo-soprano
BBC Symphony Orchestra
New York Philharmonic Orchestra [Berlioz]
Pierre Boulez



Показать сообщения:    

Текущее время: 05-Дек 01:19

Часовой пояс: UTC + 3


Вы не можете начинать темы
Вы не можете отвечать на сообщения
Вы не можете редактировать свои сообщения
Вы не можете удалять свои сообщения
Вы не можете голосовать в опросах
Вы не можете прикреплять файлы к сообщениям
Вы не можете скачивать файлы