(Orchestral) Gustav Mahler - Symphonie Nr.8 | Hector Berlioz - Les Nuits d'ete (Y.Minton • S.Burrows • E.Moser et al. | BBC Symphony Orchestra | P.Boulez) - 1993, FLAC (image+.cue) lossless


 

[Цитировать]

PIERRE BOULEZ conducts
GUSTAV MAHLER - Symphony N.8 in E flat major
HECTOR BERLIOZ - Les Nuits d'été
BBC Symphony Orchestra
--- Жанр: Orchestral
Страна-производитель диска: Italy
Год издания диска: 1993
Издатель (лейбл): Artists
Дата записи: 1975/78
Аудиокодек: FLAC
Тип рипа: image+.cue
Битрейт аудио: lossless
Продолжительность: 1:56'58''
Источник: собственный рип
Наличие сканов в содержимом раздачи: да
Треклист:

CD1

[01] H.Berlioz - Les Nuits d'été: I. Villanelle
[02] II. Le spectre de la rose
[03] III. Sur les lagunes
[04] IV. Absence
[05] V. Au cimetiere
[06] VI. L'île inconnue
[07] G.Mahler - Symphonie Nr.8: I. Veni, creator spiritus

Лог создания рипа

Exact Audio Copy V1.0 beta 4 from 7. December 2014
EAC extraction logfile from 4. March 2015, 20:11
BBC Symphony Orchestra - Pierre Boulez / Mahler - Symphonie Nr.8
Used drive : HL-DT-STDVD+-RW GU90N Adapter: 1 ID: 0
Read mode : Secure
Utilize accurate stream : Yes
Defeat audio cache : Yes
Make use of C2 pointers : No
Read offset correction : 102
Overread into Lead-In and Lead-Out : No
Fill up missing offset samples with silence : Yes
Delete leading and trailing silent blocks : No
Null samples used in CRC calculations : Yes
Used interface : Native Win32 interface for Win NT & 2000
Used output format : User Defined Encoder
Selected bitrate : 1024 kBit/s
Quality : High
Add ID3 tag : No
Command line compressor : C:\Program Files (x86)\FLAC\flac.exe
Additional command line options : -T "COMMENT=rip by el coronel" -8 -V %source%
TOC of the extracted CD
Track | Start | Length | Start sector | End sector
---------------------------------------------------------
1 | 0:00.33 | 2:12.00 | 33 | 9932
2 | 2:12.33 | 7:09.25 | 9933 | 42132
3 | 9:21.58 | 7:10.50 | 42133 | 74432
4 | 16:32.33 | 4:56.25 | 74433 | 96657
5 | 21:28.58 | 5:26.00 | 96658 | 121107
6 | 26:54.58 | 3:30.00 | 121108 | 136857
7 | 30:24.58 | 22:21.50 | 136858 | 237482
Range status and errors
Selected range
Filename F:\Music\Mahler 8 (BBC, Boulez)\CD1.wav
Peak level 100.0 %
Extraction speed 4.2 X
Range quality 100.0 %
Test CRC 472CC4A1
Copy CRC 472CC4A1
Copy OK
No errors occurred
AccurateRip summary
Track 1 accurately ripped (confidence 1) [6B8DF2D3] (AR v1)
Track 2 accurately ripped (confidence 1) [99D82F92] (AR v1)
Track 3 accurately ripped (confidence 1) [8340E98B] (AR v1)
Track 4 accurately ripped (confidence 1) [76ACD90F] (AR v1)
Track 5 accurately ripped (confidence 1) [21D508E8] (AR v1)
Track 6 accurately ripped (confidence 1) [815D22A0] (AR v1)
Track 7 accurately ripped (confidence 1) [48BBF903] (AR v1)
All tracks accurately ripped
End of status report
---- CUETools DB Plugin V2.1.4
[CTDB TOCID: 9.HM8dOVoLoWYnYlWufAhPRaHWE-] disk not present in database
Submit result: 9.HM8dOVoLoWYnYlWufAhPRaHWE- has been uploaded
==== Log checksum C0B0FF4C427152B3CA5F0008AE6E1029A89961EF566AE5091BC4E9DF4E2C21C5 ====

Содержание индексной карты (.CUE)

REM GENRE Classical
REM DATE 1993
REM DISCID 590C5E07
REM COMMENT ExactAudioCopy v1.0b4
PERFORMER "BBC Symphony Orchestra - Pierre Boulez"
TITLE "Mahler - Symphonie Nr.8 (СD1)"
FILE "CD1.flac" WAVE
TRACK 01 AUDIO
TITLE "H.Berlioz - Les Nuits d'ete: I. Villanelle"
INDEX 00 00:00:00
INDEX 01 00:00:33
TRACK 02 AUDIO
TITLE "II. Le spectre de la rose"
INDEX 01 02:12:33
TRACK 03 AUDIO
TITLE "III. Sur les lagunes"
INDEX 01 09:21:58
TRACK 04 AUDIO
TITLE "IV. Absence"
INDEX 01 16:32:33
TRACK 05 AUDIO
TITLE "V. Au cimetiere"
INDEX 01 21:28:58
TRACK 06 AUDIO
TITLE "VI. L'ile inconnue"
INDEX 01 26:54:58
TRACK 07 AUDIO
TITLE "G.Mahler - Symphonie Nr.8: I. Veni, creator spiritus"
INDEX 00 30:17:33
INDEX 01 30:24:58

CD2

[01] G.Mahler - Symphonie Nr.8: II. Poco Adagio - Piu mosso
[02] III. Äusserst langsam. Adagissimo

Лог создания рипа

Exact Audio Copy V1.0 beta 4 from 7. December 2014
EAC extraction logfile from 4. March 2015, 21:27
BBC Symphony Orchestra - Pierre Boulez / Mahler - Symphonie Nr.8 (CD2)
Used drive : HL-DT-STDVD+-RW GU90N Adapter: 1 ID: 0
Read mode : Secure
Utilize accurate stream : Yes
Defeat audio cache : Yes
Make use of C2 pointers : No
Read offset correction : 102
Overread into Lead-In and Lead-Out : No
Fill up missing offset samples with silence : Yes
Delete leading and trailing silent blocks : No
Null samples used in CRC calculations : Yes
Used interface : Native Win32 interface for Win NT & 2000
Used output format : User Defined Encoder
Selected bitrate : 1024 kBit/s
Quality : High
Add ID3 tag : No
Command line compressor : C:\Program Files (x86)\FLAC\flac.exe
Additional command line options : -T "COMMENT=rip by el coronel" -8 -V %source%
TOC of the extracted CD
Track | Start | Length | Start sector | End sector
---------------------------------------------------------
1 | 0:00.33 | 35:11.50 | 33 | 158407
2 | 35:12.08 | 29:00.25 | 158408 | 288932
Range status and errors
Selected range
Filename F:\Music\Mahler 8 (BBC, Boulez)\CD2.wav
Peak level 100.0 %
Extraction speed 3.3 X
Range quality 100.0 %
Test CRC 2BFBABEA
Copy CRC 2BFBABEA
Copy OK
No errors occurred
AccurateRip summary
Track 1 accurately ripped (confidence 1) [1FE60941] (AR v1)
Track 2 accurately ripped (confidence 1) [76DF017C] (AR v1)
All tracks accurately ripped
End of status report
---- CUETools DB Plugin V2.1.4
[CTDB TOCID: sKbwDlcqoJFLdOJS3ojDSMuTTUI-] disk not present in database
Submit result: sKbwDlcqoJFLdOJS3ojDSMuTTUI- has been uploaded
==== Log checksum 2A90BEDFEEE6605F4232F158C53CEA4F369B70A6EC1E62F14E5020A1E93B60C1 ====

Содержание индексной карты (.CUE)

REM GENRE Classical
REM DATE 1993
REM DISCID 0A0F0C02
REM COMMENT ExactAudioCopy v1.0b4
PERFORMER "BBC Symphony Orchestra - Pierre Boulez"
TITLE "Mahler - Symphonie Nr.8 (CD2)"
FILE "CD2.flac" WAVE
TRACK 01 AUDIO
TITLE "G.Mahler - Symphonie Nr.8: II. Poco Adagio - Piu mosso"
INDEX 00 00:00:00
INDEX 01 00:00:33
TRACK 02 AUDIO
TITLE "III. Ausserst langsam. Adagissimo"
INDEX 01 35:12:08
Исполнители:
Yvonne Minton - soprano [Berlioz]
Stuart Burrows - tenor [Berlioz]
Edda Moser • Linda Esther Gray • Wendy Eathorne - soprano
Elizabeth Connel - mezzo-soprano
Bernardette Greevy - alto
Alberto Remedios - tenor
Siegmund Nimsgem - baritone
Marius Rintzler - bass
BBC Symphony Orchestra - Pierre Boulez



Показать сообщения:    

Текущее время: 08-Дек 17:25

Часовой пояс: UTC + 3


Вы не можете начинать темы
Вы не можете отвечать на сообщения
Вы не можете редактировать свои сообщения
Вы не можете удалять свои сообщения
Вы не можете голосовать в опросах
Вы не можете прикреплять файлы к сообщениям
Вы не можете скачивать файлы