(Classical / Orchestral) Wolfgang Amadeus Mozart - Kirchensonaten (Sonate di chiesa / Church Sonatas) / Вольфганг Амадей Моцарт - Церковные сонаты (Corelli Kamarazenekar / Corelli Chamber Orchestra, Istvan Ella) - 1987, FLAC (tracks+.cue) lossless


 

[Цитировать]

Wolfgang Amadeus Mozart | Вольфганг Амадей Моцарт
(1756–1791)



Kirchensonaten | Sonate di chiesa | Church Sonatas | Церковные сонаты


Corelli Kamarazenekar (Corelli Chamber Orchestra)
István Kertész* concertmaster
István Ella organ & artistic director


Жанр: Classical / Orchestral
Дата записи: предположительно 1986*
Формат записи: DDD, Stereo
Год издания диска: 1987*
Издатель (лейбл): Hungaroton
Номер по каталогу: HCD 12866-2
Аудиокодек: FLAC
Тип рипа: tracks+.cue
Битрейт аудио: lossless
Продолжительность: 1:10:21
Наличие сканов в содержимом раздачи: да
Источник: What.CD
Релизёр: yayosalva


Tracklist / Треклист
Kirchensonate Nr. 15 C-dur, KV 329 (317a) - 4:02
  • Kirchensonate Nr. 7 G-dur, KV 241 - 3:53
  • Kirchensonate Nr. 16 C-dur, KV 328 (317c) - 4:29
  • Kirchensonate Nr. 4 D-dur, KV 144 (124a) - 4:20
  • Kirchensonate Nr. 17 C-dur, KV 336 (336d) - 3:57
  • Kirchensonate Nr. 9 A-dur, KV 225 (241b) - 5:35
  • Kirchensonate Nr. 11 D-dur, KV 245 - 5:03
  • Kirchensonate Nr. 13 G-dur, KV 274 (271d) - 4:47
  • Kirchensonate Nr. 14 C-dur, KV 278 (271e) - 3:37
  • Kirchensonate Nr. 5 F-dur, KV 145 (124b) - 2:41
  • Kirchensonate Nr. 12 C-dur, KV 263 - 4:49
  • Kirchensonate Nr. 3 D-dur, KV 69 (41k) - 3:41
  • Kirchensonate Nr. 8 F-dur, KV 224 (241a) - 4:09
  • Kirchensonate Nr. 2 B-dur, KV 68 (41i) - 3:39
  • Kirchensonate Nr. 10 F-dur, KV 244 - 4:56
  • Kirchensonate Nr. 6 B-dur, KV 212 - 4:36
  • Kirchensonate Nr. 1 Es-dur, KV 67 (41h) - 2:07

    -* Дополнительная информацияВсю ночь гуглил.
  • Corelli Kamarazenekar (основан в 1975 г.) играет на исторических инструментах;
  • Скрипач István Kertész (р. 1945) не имеет никакого отношения к известному дирижёру (погибшему в 1973 г., задолго до этой записи) — это его тёзка и однофамилец;
  • István Ella работал с Corelli Kamarazenekar с 1976 по 1986 год, так что запись скорее всего сделана в 1986-м;
  • В некоторых источниках указана дана выхода диска 1995 г. Судя по каталожным номерам других релизов Hungaroton, правильная дата — 1987;
  • Номера пяти сонат исправлены в соответствии с каталогом Кёхеля.-

    EAC log / Отчёт EAC

    Exact Audio Copy V1.0 beta 3 from 29. August 2011
    EAC extraction logfile from 24. March 2015, 13:28
    Wolfgang Amadeus Mozart / Church Sonatas Complete
    Used drive : HL-DT-STDVDRAM GH24NS90 Adapter: 0 ID: 0
    Read mode : Secure
    Utilize accurate stream : Yes
    Defeat audio cache : Yes
    Make use of C2 pointers : No
    Read offset correction : 6
    Overread into Lead-In and Lead-Out : No
    Fill up missing offset samples with silence : Yes
    Delete leading and trailing silent blocks : No
    Null samples used in CRC calculations : Yes
    Used interface : Native Win32 interface for Win NT & 2000
    Gap handling : Appended to previous track
    Used output format : User Defined Encoder
    Selected bitrate : 896 kBit/s
    Quality : High
    Add ID3 tag : No
    Command line compressor : C:\Program Files (x86)\Exact Audio Copy\Flac\flac.exe
    Additional command line options : -8 -V -T "ARTIST=%artist%" -T "TITLE=%title%" -T "ALBUM=%albumtitle%" -T "DATE=%year%" -T "TRACKNUMBER=%tracknr%" -T "GENRE=%genre%" -T "PERFORMER=%albuminterpret%" -T "COMPOSER=%composer%" %haslyrics%--tag-from-file=LYRICS="%lyricsfile%"%haslyrics% -T "ALBUMARTIST=%albumartist%" -T "DISCNUMBER=%cdnumber%" -T "TOTALDISCS=%totalcds%" -T "TOTALTRACKS=%numtracks%" -T "COMMENT=%comment%" %source% -o %dest%
    TOC of the extracted CD
    Track | Start | Length | Start sector | End sector
    ---------------------------------------------------------
    1 | 0:00.00 | 4:02.37 | 0 | 18186
    2 | 4:02.37 | 3:52.40 | 18187 | 35626
    3 | 7:55.02 | 4:28.53 | 35627 | 55779
    4 | 12:23.55 | 4:20.07 | 55780 | 75286
    5 | 16:43.62 | 3:56.50 | 75287 | 93036
    6 | 20:40.37 | 5:35.13 | 93037 | 118174
    7 | 26:15.50 | 5:02.55 | 118175 | 140879
    8 | 31:18.30 | 4:46.42 | 140880 | 162371
    9 | 36:04.72 | 3:37.00 | 162372 | 178646
    10 | 39:41.72 | 2:41.05 | 178647 | 190726
    11 | 42:23.02 | 4:49.00 | 190727 | 212401
    12 | 47:12.02 | 3:41.18 | 212402 | 228994
    13 | 50:53.20 | 4:09.17 | 228995 | 247686
    14 | 55:02.37 | 3:38.68 | 247687 | 264104
    15 | 58:41.30 | 4:56.27 | 264105 | 286331
    16 | 63:37.57 | 4:36.05 | 286332 | 307036
    17 | 68:13.62 | 2:07.03 | 307037 | 316564
    Track 1
    Filename F:\Espacio de trabajo\Torrent\EAC Rips\W.A. Mozart - Chruch Sonatas Complete - Corelli Chamber Orchestra - (1987) FLAC\01 No. 16 in C major K.329.wav
    Pre-gap length 0:00:02.00
    Peak level 100.0 %
    Extraction speed 1.2 X
    Track quality 100.0 %
    Test CRC B1AC30A8
    Copy CRC B1AC30A8
    Cannot be verified as accurate (confidence 2) [E9B3355B], AccurateRip returned [B78CF772] (AR v2)
    Copy OK
    Track 2
    Filename F:\Espacio de trabajo\Torrent\EAC Rips\W.A. Mozart - Chruch Sonatas Complete - Corelli Chamber Orchestra - (1987) FLAC\02 No. 9 in G major K.241.wav
    Pre-gap length 0:00:01.80
    Peak level 66.8 %
    Extraction speed 1.3 X
    Track quality 100.0 %
    Test CRC 17418643
    Copy CRC 17418643
    Cannot be verified as accurate (confidence 2) [BA00599A], AccurateRip returned [503E1E13] (AR v2)
    Copy OK
    Track 3
    Filename F:\Espacio de trabajo\Torrent\EAC Rips\W.A. Mozart - Chruch Sonatas Complete - Corelli Chamber Orchestra - (1987) FLAC\03 No. 15 in C major K.328.wav
    Pre-gap length 0:00:02.73
    Peak level 70.7 %
    Extraction speed 1.4 X
    Track quality 100.0 %
    Test CRC BD5D43F4
    Copy CRC BD5D43F4
    Cannot be verified as accurate (confidence 2) [3FF3E7CB], AccurateRip returned [5E10DD9C] (AR v2)
    Copy OK
    Track 4
    Filename F:\Espacio de trabajo\Torrent\EAC Rips\W.A. Mozart - Chruch Sonatas Complete - Corelli Chamber Orchestra - (1987) FLAC\04 No. 4 in D major K.144.wav
    Pre-gap length 0:00:02.20
    Peak level 70.2 %
    Extraction speed 1.5 X
    Track quality 100.0 %
    Test CRC 3436D345
    Copy CRC 3436D345
    Cannot be verified as accurate (confidence 2) [688E3264], AccurateRip returned [580070B3] (AR v2)
    Copy OK
    Track 5
    Filename F:\Espacio de trabajo\Torrent\EAC Rips\W.A. Mozart - Chruch Sonatas Complete - Corelli Chamber Orchestra - (1987) FLAC\05 No. 17 in C major K.336.wav
    Pre-gap length 0:00:03.33
    Peak level 66.0 %
    Extraction speed 1.6 X
    Track quality 100.0 %
    Test CRC 2B27AEDA
    Copy CRC 2B27AEDA
    Cannot be verified as accurate (confidence 2) [A44D87C5], AccurateRip returned [08B7C4F3] (AR v2)
    Copy OK
    Track 6
    Filename F:\Espacio de trabajo\Torrent\EAC Rips\W.A. Mozart - Chruch Sonatas Complete - Corelli Chamber Orchestra - (1987) FLAC\06 No. 8 in A major K.225.wav
    Pre-gap length 0:00:03.20
    Peak level 78.5 %
    Extraction speed 1.8 X
    Track quality 100.0 %
    Test CRC 026E1DEA
    Copy CRC 026E1DEA
    Cannot be verified as accurate (confidence 2) [436F9F88], AccurateRip returned [755C01F9] (AR v2)
    Copy OK
    Track 7
    Filename F:\Espacio de trabajo\Torrent\EAC Rips\W.A. Mozart - Chruch Sonatas Complete - Corelli Chamber Orchestra - (1987) FLAC\07 No. 11 in D major K.245.wav
    Pre-gap length 0:00:03.50
    Peak level 96.4 %
    Extraction speed 1.9 X
    Track quality 100.0 %
    Test CRC 90F0410E
    Copy CRC 90F0410E
    Cannot be verified as accurate (confidence 2) [4FB39C47], AccurateRip returned [681CCFCB] (AR v2)
    Copy OK
    Track 8
    Filename F:\Espacio de trabajo\Torrent\EAC Rips\W.A. Mozart - Chruch Sonatas Complete - Corelli Chamber Orchestra - (1987) FLAC\08 No. 13 in G major K.274.wav
    Pre-gap length 0:00:03.37
    Peak level 66.7 %
    Extraction speed 2.0 X
    Track quality 100.0 %
    Test CRC 2BE42560
    Copy CRC 2BE42560
    Cannot be verified as accurate (confidence 2) [6B073A93], AccurateRip returned [EED0CDC5] (AR v2)
    Copy OK
    Track 9
    Filename F:\Espacio de trabajo\Torrent\EAC Rips\W.A. Mozart - Chruch Sonatas Complete - Corelli Chamber Orchestra - (1987) FLAC\09 No. 14 in C major K.278.wav
    Pre-gap length 0:00:02.69
    Peak level 71.5 %
    Extraction speed 1.9 X
    Track quality 100.0 %
    Test CRC 363F1557
    Copy CRC 363F1557
    Cannot be verified as accurate (confidence 2) [10D6EEFA], AccurateRip returned [CD180E0C] (AR v2)
    Copy OK
    Track 10
    Filename F:\Espacio de trabajo\Torrent\EAC Rips\W.A. Mozart - Chruch Sonatas Complete - Corelli Chamber Orchestra - (1987) FLAC\10 No. 5 in F major K.145.wav
    Pre-gap length 0:00:02.53
    Peak level 64.9 %
    Extraction speed 1.9 X
    Track quality 100.0 %
    Test CRC 78795EAF
    Copy CRC 78795EAF
    Cannot be verified as accurate (confidence 2) [1A0F6229], AccurateRip returned [16743C6A] (AR v2)
    Copy OK
    Track 11
    Filename F:\Espacio de trabajo\Torrent\EAC Rips\W.A. Mozart - Chruch Sonatas Complete - Corelli Chamber Orchestra - (1987) FLAC\11 No. 12 in C major K.263.wav
    Pre-gap length 0:00:02.56
    Peak level 75.7 %
    Extraction speed 2.2 X
    Track quality 100.0 %
    Test CRC EB218525
    Copy CRC EB218525
    Cannot be verified as accurate (confidence 2) [A5B35904], AccurateRip returned [A9D2AEA3] (AR v2)
    Copy OK
    Track 12
    Filename F:\Espacio de trabajo\Torrent\EAC Rips\W.A. Mozart - Chruch Sonatas Complete - Corelli Chamber Orchestra - (1987) FLAC\12 No. 3 in D major K.69.wav
    Pre-gap length 0:00:01.86
    Peak level 51.8 %
    Extraction speed 2.2 X
    Track quality 100.0 %
    Test CRC F53D21CA
    Copy CRC F53D21CA
    Cannot be verified as accurate (confidence 2) [D47D5C42], AccurateRip returned [BFEA5FCD] (AR v2)
    Copy OK
    Track 13
    Filename F:\Espacio de trabajo\Torrent\EAC Rips\W.A. Mozart - Chruch Sonatas Complete - Corelli Chamber Orchestra - (1987) FLAC\13 No. 7 in F major K.224.wav
    Pre-gap length 0:00:02.64
    Peak level 71.3 %
    Extraction speed 2.2 X
    Track quality 100.0 %
    Test CRC F3F170BE
    Copy CRC F3F170BE
    Cannot be verified as accurate (confidence 2) [3246F786], AccurateRip returned [ECACAC62] (AR v2)
    Copy OK
    Track 14
    Filename F:\Espacio de trabajo\Torrent\EAC Rips\W.A. Mozart - Chruch Sonatas Complete - Corelli Chamber Orchestra - (1987) FLAC\14 No. 2 in B flat major K.68.wav
    Pre-gap length 0:00:02.96
    Peak level 72.5 %
    Extraction speed 2.3 X
    Track quality 100.0 %
    Test CRC BFEE5691
    Copy CRC BFEE5691
    Cannot be verified as accurate (confidence 2) [BA2482D0], AccurateRip returned [CA8B25C5] (AR v2)
    Copy OK
    Track 15
    Filename F:\Espacio de trabajo\Torrent\EAC Rips\W.A. Mozart - Chruch Sonatas Complete - Corelli Chamber Orchestra - (1987) FLAC\15 No. 10 in F major K.244.wav
    Pre-gap length 0:00:03.46
    Peak level 67.1 %
    Extraction speed 2.4 X
    Track quality 100.0 %
    Test CRC 6397068B
    Copy CRC 6397068B
    Cannot be verified as accurate (confidence 2) [505166CD], AccurateRip returned [9795E5F9] (AR v2)
    Copy OK
    Track 16
    Filename F:\Espacio de trabajo\Torrent\EAC Rips\W.A. Mozart - Chruch Sonatas Complete - Corelli Chamber Orchestra - (1987) FLAC\16 No. 6 in B flat major K.212.wav
    Pre-gap length 0:00:02.49
    Peak level 67.8 %
    Extraction speed 2.5 X
    Track quality 100.0 %
    Test CRC 26DD3B1A
    Copy CRC 26DD3B1A
    Cannot be verified as accurate (confidence 1) [1905BFED], AccurateRip returned [0BE6D662] (AR v2)
    Copy OK
    Track 17
    Filename F:\Espacio de trabajo\Torrent\EAC Rips\W.A. Mozart - Chruch Sonatas Complete - Corelli Chamber Orchestra - (1987) FLAC\17 No. 1 in E flat major K.67.wav
    Pre-gap length 0:00:03.00
    Peak level 37.2 %
    Extraction speed 2.2 X
    Track quality 100.0 %
    Test CRC 9F197282
    Copy CRC 9F197282
    Cannot be verified as accurate (confidence 1) [9199630E], AccurateRip returned [7B4DA204] (AR v2)
    Copy OK
    No tracks could be verified as accurate
    You may have a different pressing from the one(s) in the database
    No errors occurred
    End of status report
    ---- CUETools DB Plugin V2.1.3
    [CTDB TOCID: o4OzzMCQ8fYgcQVEPDVDD3V1ABw-] found, Submit result: o4OzzMCQ8fYgcQVEPDVDD3V1ABw- has been confirmed
    [d41f76ec] (1/3) Differs in 378 samples @65:24:21,66:53:29-66:53:30,66:53:72-66:53:73,66:54:41-66:54:42,66:56:65-66:56:66,66:57:56-66:57:57,66:58:46-66:58:47,67:01:18,67:01:39-67:01:40,67:01:61-67:01:62,67:11:31-67:11:32
    [e22f05ab] (2/3) Accurately ripped
    You can use CUETools to repair this rip.
    ==== Log checksum 2427C88B7BEDC53B1CFAAC37F5D51175C55299B97A03A076D639574E26B5706E ====

    auCDtect Task Manager log / Отчёт auCDtect Task Manager

    -----------------------
    DON'T MODIFY THIS FILE
    -----------------------
    PERFORMER: auCDtect Task Manager, ver. 1.5.1RC3 build 1.5.1.4
    Copyright (c) 2008-2010 y-soft. All rights reserved
    ANALYZER: auCDtect: CD records authenticity detector, version 0.8.2
    Copyright (c) 2004 Oleg Berngardt. All rights reserved.
    Copyright (c) 2004 Alexander Djourik. All rights reserved.
    FILE: 15 - Kirchensonate Nr. 10 F-dur, KV 244.flac
    Size: 23993818 Hash: 00C6D031B4D116F109B53A148658FE4E Accuracy: -m0
    Conclusion: CDDA 100%
    Signature: 4717FADB248F67C0D1D38AD491395DDC2C00A7BE
    FILE: 14 - Kirchensonate Nr. 2 B-dur, KV 68 (41i).flac
    Size: 19227502 Hash: 0CE6DCA093777932B1A4FD5B78D4C278 Accuracy: -m0
    Conclusion: CDDA 100%
    Signature: B65A023AD6114F08E17063659E49EECD45B3CE64
    FILE: 13 - Kirchensonate Nr. 8 F-dur, KV 224 (241a).flac
    Size: 20620268 Hash: BB2EDDC01F02B8350E98EEDD9302AEF0 Accuracy: -m0
    Conclusion: CDDA 100%
    Signature: 7E03988C552089C300BF2715167FB627C9C63FA4
    FILE: 12 - Kirchensonate Nr. 3 D-dur, KV 69 (41k).flac
    Size: 19758461 Hash: F274C622AC0BC5572C98428B32992D25 Accuracy: -m0
    Conclusion: CDDA 100%
    Signature: 92A4ADC2473335A5946BCF49F600904B1241FA96
    FILE: 11 - Kirchensonate Nr. 12 C-dur, KV 263.flac
    Size: 24386376 Hash: E929E3FC236E1266294808EB70AE85FC Accuracy: -m0
    Conclusion: CDDA 100%
    Signature: B11D84926ECD0410E40108E1A9D3BC74A1D31C82
    FILE: 10 - Kirchensonate Nr. 5 F-dur, KV 145 (124b).flac
    Size: 12704239 Hash: 422973CB7AA3E621E6BCD4FF34A94B79 Accuracy: -m0
    Conclusion: CDDA 100%
    Signature: 4BCD44FA3AEEFC6F493806DCC5DD2DC4F0DA5C68
    FILE: 09 - Kirchensonate Nr. 14 C-dur, KV 278 (271e).flac
    Size: 17818110 Hash: 42B7A2B507DD23D34C54AE86C77E44C2 Accuracy: -m0
    Conclusion: CDDA 100%
    Signature: 8307FB57D254D6C26B57DBB2A668E96B5A6D1BA8
    FILE: 08 - Kirchensonate Nr. 13 G-dur, KV 274 (271d).flac
    Size: 24022855 Hash: 26EFC9B12A2F01A6C4E8EB1EEFBB9590 Accuracy: -m0
    Conclusion: CDDA 100%
    Signature: A9EF2749E31BEE85D48DB32A05272F476C46BD1C
    FILE: 07 - Kirchensonate Nr. 11 D-dur, KV 245.flac
    Size: 26126930 Hash: A57B41D4E0A408CD829E3805014E160B Accuracy: -m0
    Conclusion: CDDA 100%
    Signature: 1D2CC0C0ED4CB79A01A49A353B3CCADBD84C8ABE
    FILE: 06 - Kirchensonate Nr. 9 A-dur, KV 225 (241b).flac
    Size: 29126127 Hash: DB740F7F1615064961E43A1BC3E1A38C Accuracy: -m0
    Conclusion: CDDA 100%
    Signature: 84B919962C4970C5B605B67A98E3107859B18A81
    FILE: 05 - Kirchensonate Nr. 17 C-dur, KV 336 (336d).flac
    Size: 19670333 Hash: DABA35E0587134A05E4233228EB44E84 Accuracy: -m0
    Conclusion: MPEG 93%
    Signature: C124ADFC25B7830D08FCB329740349BF0417C1F1
    FILE: 04 - Kirchensonate Nr. 4 D-dur, KV 144 (124a).flac
    Size: 21476321 Hash: E61892F3742B88DE67A6FEA163FBBC75 Accuracy: -m0
    Conclusion: CDDA 100%
    Signature: 4BCAFFE01B1FB5762768DB748E6D0B36579286BB
    FILE: 03 - Kirchensonate Nr. 16 C-dur, KV 328 (317c).flac
    Size: 23032171 Hash: 699CC8DB569DA6CB916621AE98F87DF7 Accuracy: -m0
    Conclusion: CDDA 100%
    Signature: DC56E2702718A836F0E3801326990ABCB22740A8
    FILE: 02 - Kirchensonate Nr. 7 G-dur, KV 241.flac
    Size: 19158294 Hash: F5EA2F20B8BD13E469D9F2E2404AA35B Accuracy: -m0
    Conclusion: CDDA 100%
    Signature: 3016A73D4204530F9E721371EDB4D1EF3F94831E
    FILE: 01 - Kirchensonate Nr. 15 C-dur, KV 329 (317a).flac
    Size: 20314784 Hash: 2FFD1772C865B224FBFEAF5611D98651 Accuracy: -m0
    Conclusion: CDDA 100%
    Signature: 2D016C8ADA1898CF0C44E2045EBE1EDE60EB2F33
    FILE: 17 - Kirchensonate Nr. 1 Es-dur, KV 67 (41h).flac
    Size: 9661900 Hash: 40F7F31909FA8B806219A7A564817388 Accuracy: -m0
    Conclusion: CDDA 100%
    Signature: 8138588A8196B24F7FAFF1C59A9B2B27C8985B83
    FILE: 16 - Kirchensonate Nr. 6 B-dur, KV 212.flac
    Size: 21156556 Hash: C32BF13716893521A63F2FAD647D42A2 Accuracy: -m0
    Conclusion: CDDA 100%
    Signature: 18509EB892D7E0C8DCC6FA8C4B083003474C3C98

    CUETools log / Отчёт CUETools

    [CUETools log; Date: 06.07.2015 03:06:03; Version: 2.1.4]
    [AccurateRip ID: 002cbc82-02356ac8-ed107c11] found.
    Track [ CRC | V2 ] Status
    01 [156a21d1|e9b3355b] (0+0/2) No match
    02 [943f2642|ba00599a] (0+0/2) No match
    03 [cb2d1cf1|3ff3e7cb] (0+0/2) No match
    04 [be779cc3|688e3264] (0+0/2) No match
    05 [0e6a8f59|a44d87c5] (0+0/2) No match
    06 [f6bfcac8|436f9f88] (0+0/2) No match
    07 [2c2b2497|4fb39c47] (0+0/2) No match
    08 [ff5dd977|6b073a93] (0+0/2) No match
    09 [f7688fa4|10d6eefa] (0+0/2) No match
    10 [24efafda|1a0f6229] (0+0/2) No match
    11 [b01c2ac5|a5b35904] (0+0/2) No match
    12 [69991ff7|d47d5c42] (0+0/2) No match
    13 [6e0eeb67|3246f786] (0+0/2) No match
    14 [f6a8192f|ba2482d0] (0+0/2) No match
    15 [575f3eed|505166cd] (0+0/2) No match
    16 [9615f9ea|1905bfed] (0+0/3) No match
    17 [1fed6af1|9199630e] (0+0/4) No match
    Offsetted by 395:
    01 [b78cf772] (2/2) Accurately ripped
    02 [503e1e13] (2/2) Accurately ripped
    03 [5e10dd9c] (2/2) Accurately ripped
    04 [580070b3] (2/2) Accurately ripped
    05 [08b7c4f3] (2/2) Accurately ripped
    06 [755c01f9] (2/2) Accurately ripped
    07 [681ccfcb] (2/2) Accurately ripped
    08 [eed0cdc5] (2/2) Accurately ripped
    09 [cd180e0c] (2/2) Accurately ripped
    10 [16743c6a] (2/2) Accurately ripped
    11 [a9d2aea3] (2/2) Accurately ripped
    12 [bfea5fcd] (2/2) Accurately ripped
    13 [ecacac62] (2/2) Accurately ripped
    14 [ca8b25c5] (2/2) Accurately ripped
    15 [9795e5f9] (2/2) Accurately ripped
    16 [0be6d662] (1/3) Accurately ripped
    17 [7b4da204] (1/4) Accurately ripped
    Track Peak [ CRC32 ] [W/O NULL] [ LOG ]
    -- 100,0 [6E9AC214] [7075639F]
    01 100,0 [B1AC30A8] [D70F4D12] CRC32
    02 66,8 [17418643] [58E39537] CRC32
    03 70,7 [BD5D43F4] [F6BE12B7] CRC32
    04 70,2 [3436D345] [89D9E097] CRC32
    05 66,0 [2B27AEDA] [A816CB41] CRC32
    06 78,5 [026E1DEA] [AF310086] CRC32
    07 96,4 [90F0410E] [D9BFE51C] CRC32
    08 66,7 [2BE42560] [5101A18A] CRC32
    09 71,5 [363F1557] [C184CDD7] CRC32
    10 64,9 [78795EAF] [D2BA24CC] CRC32
    11 75,7 [EB218525] [13D6A118] CRC32
    12 51,8 [F53D21CA] [BD48F836] CRC32
    13 71,3 [F3F170BE] [53AB5A0D] CRC32
    14 72,5 [BFEE5691] [85DF5987] CRC32
    15 67,1 [6397068B] [F495308E] CRC32
    16 67,8 [26DD3B1A] [68EEC0AD] CRC32
    17 37,2 [9F197282] [F1FEFA5A] CRC32

    CUE sheet

    TITLE "Wolfgang Amadeus Mozart: Kirchensonaten"
    PERFORMER "István Ella"
    REM GENRE Classical
    REM DISCID ED107C11
    REM COMMENT "ExactAudioCopy v1.0b3"
    FILE "01 - Kirchensonate Nr. 15 C-dur, KV 329 (317a).flac" WAVE
    TRACK 01 AUDIO
    TITLE "Kirchensonate Nr. 15 C-dur, KV 329 (317a)"
    PERFORMER "István Ella (organ), Corelli Kamarazenekar"
    REM DATE 1986
    INDEX 01 00:00:00
    TRACK 02 AUDIO
    TITLE "Kirchensonate Nr. 7 G-dur, KV 241"
    PERFORMER "István Ella (organ), Corelli Kamarazenekar"
    REM DATE 1986
    INDEX 00 04:00:52
    FILE "02 - Kirchensonate Nr. 7 G-dur, KV 241.flac" WAVE
    INDEX 01 00:00:00
    TRACK 03 AUDIO
    TITLE "Kirchensonate Nr. 16 C-dur, KV 328 (317c)"
    PERFORMER "István Ella (organ), Corelli Kamarazenekar"
    REM DATE 1986
    INDEX 00 03:49:60
    FILE "03 - Kirchensonate Nr. 16 C-dur, KV 328 (317c).flac" WAVE
    INDEX 01 00:00:00
    TRACK 04 AUDIO
    TITLE "Kirchensonate Nr. 4 D-dur, KV 144 (124a)"
    PERFORMER "István Ella (organ), Corelli Kamarazenekar"
    REM DATE 1986
    INDEX 00 04:26:38
    FILE "04 - Kirchensonate Nr. 4 D-dur, KV 144 (124a).flac" WAVE
    INDEX 01 00:00:00
    TRACK 05 AUDIO
    TITLE "Kirchensonate Nr. 17 C-dur, KV 336 (336d)"
    PERFORMER "István Ella (organ), Corelli Kamarazenekar"
    REM DATE 1986
    INDEX 00 04:16:57
    FILE "05 - Kirchensonate Nr. 17 C-dur, KV 336 (336d).flac" WAVE
    INDEX 01 00:00:00
    TRACK 06 AUDIO
    TITLE "Kirchensonate Nr. 9 A-dur, KV 225 (241b)"
    PERFORMER "István Ella (organ), Corelli Kamarazenekar"
    REM DATE 1986
    INDEX 00 03:53:35
    FILE "06 - Kirchensonate Nr. 9 A-dur, KV 225 (241b).flac" WAVE
    INDEX 01 00:00:00
    TRACK 07 AUDIO
    TITLE "Kirchensonate Nr. 11 D-dur, KV 245"
    PERFORMER "István Ella (organ), Corelli Kamarazenekar"
    REM DATE 1986
    INDEX 00 05:31:50
    FILE "07 - Kirchensonate Nr. 11 D-dur, KV 245.flac" WAVE
    INDEX 01 00:00:00
    TRACK 08 AUDIO
    TITLE "Kirchensonate Nr. 13 G-dur, KV 274 (271d)"
    PERFORMER "István Ella (organ), Corelli Kamarazenekar"
    REM DATE 1986
    INDEX 00 04:59:27
    FILE "08 - Kirchensonate Nr. 13 G-dur, KV 274 (271d).flac" WAVE
    INDEX 01 00:00:00
    TRACK 09 AUDIO
    TITLE "Kirchensonate Nr. 14 C-dur, KV 278 (271e)"
    PERFORMER "István Ella (organ), Corelli Kamarazenekar"
    REM DATE 1986
    INDEX 00 04:43:65
    FILE "09 - Kirchensonate Nr. 14 C-dur, KV 278 (271e).flac" WAVE
    INDEX 01 00:00:00
    TRACK 10 AUDIO
    TITLE "Kirchensonate Nr. 5 F-dur, KV 145 (124b)"
    PERFORMER "István Ella (organ), Corelli Kamarazenekar"
    REM DATE 1986
    INDEX 00 03:34:35
    FILE "10 - Kirchensonate Nr. 5 F-dur, KV 145 (124b).flac" WAVE
    INDEX 01 00:00:00
    TRACK 11 AUDIO
    TITLE "Kirchensonate Nr. 12 C-dur, KV 263"
    PERFORMER "István Ella (organ), Corelli Kamarazenekar"
    REM DATE 1986
    INDEX 00 02:38:38
    FILE "11 - Kirchensonate Nr. 12 C-dur, KV 263.flac" WAVE
    INDEX 01 00:00:00
    TRACK 12 AUDIO
    TITLE "Kirchensonate Nr. 3 D-dur, KV 69 (41k)"
    PERFORMER "István Ella (organ), Corelli Kamarazenekar"
    REM DATE 1986
    INDEX 00 04:47:10
    FILE "12 - Kirchensonate Nr. 3 D-dur, KV 69 (41k).flac" WAVE
    INDEX 01 00:00:00
    TRACK 13 AUDIO
    TITLE "Kirchensonate Nr. 8 F-dur, KV 224 (241a)"
    PERFORMER "István Ella (organ), Corelli Kamarazenekar"
    REM DATE 1986
    INDEX 00 03:38:45
    FILE "13 - Kirchensonate Nr. 8 F-dur, KV 224 (241a).flac" WAVE
    INDEX 01 00:00:00
    TRACK 14 AUDIO
    TITLE "Kirchensonate Nr. 2 B-dur, KV 68 (41i)"
    PERFORMER "István Ella (organ), Corelli Kamarazenekar"
    REM DATE 1986
    INDEX 00 04:06:20
    FILE "14 - Kirchensonate Nr. 2 B-dur, KV 68 (41i).flac" WAVE
    INDEX 01 00:00:00
    TRACK 15 AUDIO
    TITLE "Kirchensonate Nr. 10 F-dur, KV 244"
    PERFORMER "István Ella (organ), Corelli Kamarazenekar"
    REM DATE 1986
    INDEX 00 03:35:33
    FILE "15 - Kirchensonate Nr. 10 F-dur, KV 244.flac" WAVE
    INDEX 01 00:00:00
    TRACK 16 AUDIO
    TITLE "Kirchensonate Nr. 6 B-dur, KV 212"
    PERFORMER "István Ella (organ), Corelli Kamarazenekar"
    REM DATE 1986
    INDEX 00 04:53:65
    FILE "16 - Kirchensonate Nr. 6 B-dur, KV 212.flac" WAVE
    INDEX 01 00:00:00
    TRACK 17 AUDIO
    TITLE "Kirchensonate Nr. 1 Es-dur, KV 67 (41h)"
    PERFORMER "István Ella (organ), Corelli Kamarazenekar"
    REM DATE 1986
    INDEX 00 04:33:05
    FILE "17 - Kirchensonate Nr. 1 Es-dur, KV 67 (41h).flac" WAVE
    INDEX 01 00:00:00
    -



  • Показать сообщения:    

    Текущее время: 07-Дек 19:23

    Часовой пояс: UTC + 3


    Вы не можете начинать темы
    Вы не можете отвечать на сообщения
    Вы не можете редактировать свои сообщения
    Вы не можете удалять свои сообщения
    Вы не можете голосовать в опросах
    Вы не можете прикреплять файлы к сообщениям
    Вы не можете скачивать файлы