[TR24][OF] Борис Тищенко / Boris Tishchenko: Complete Violin Works - Gabriel Tchalik, Dania Tchalik - 2015 (Classical)


Статистика раздачи [Обновить пиров]
Размер:  1.2 GB   |    Зарегистрирован:  8 месяцев 20 дней   |    Скачан:  1 раз

Полного источника не было: 6 месяцев 18 дней

 
   
 
 
 

[Цитировать]

Boris Tishchenko
Complete Violin Works
Gabriel Tchalik · Dania Tchalik
-Год издания: 2015 | Жанр: Classical
Издатель: Evidence | Продолжительность: 01:14:28
Наличие сканов: Sleeve, Digital Booklet- -Gabriel Tchalik, violin
Dania Tchalik, piano*
Recorded at the Salle Colonne, Paris, in April 2015-Контейнер: FLAC (*.flac) | Тип рипа: tracks
Разрядность: 24bit / 88.2kHz | Количество каналов: 2.0
-Треклист
Boris Tishchenko (1939-2010)
Fantasy for Violin and Piano, Op. 118*
01.Fantasy for Violin and Piano (14:11)
Sonata for Solo Violin No. 1, Op. 5
02. I. Allegro (1:40)
03. II. Andante (5:02)
04. III. Allegro ma non troppo (Energico) (4:06)
Rondo for Violin and Piano, Op. 2*
05. Rondo for Violin and Piano (8:28)
Capriccio for Violin and Piano, Op. 31*
06. Capriccio for Violin and Piano (5:31)
Two Dances in an Ancient Style for Violin and Piano, Op. 62 bis*
07. Two Dances in an Ancient Style for Violin and Piano (3:44)
Sonata for Solo Violin No. 2, Op. 63
08. I. Prelude (Maestoso) (4:22)
09. II. Intermezzo I (Presto) (2:40)
10. III. Allegro (4:35)
11. IV. Intermezzo II (Presto) (2:33)
12. V. Aria (Andante) (11:46)
13. VI. Intermezzo III (Presto) (2:53)
14. VII. Postlude (Maestoso) (2:58)

О релизе


After the success of his first album, devoted to Locatelli's 24 'Caprices for solo violin', Gabriel Tchalik takes us to Russia in the second half of the 20th century, following in the footsteps of Boris Tishchenko (1939-2010).
This album features the world premiere recordings of Tishchenko's complete works for violin. To underscore this event, Gabriel Tchalik wanted to bring together with this album three outstanding personalities from the intellectual and artistic world of this post-Stalin era: a composer, a painter and a writer, each of whom, in his own way, depicted Soviet reality of the time. Instigator of Moscow's famous so-called 'Bulldozer Exhibition', repressed in 1974 by the regime, Oscar Rabin is a painter now internationally known; 12 of his unpublished drawings, dating from the 1950s and '60s, are thus presented in this new album conceived as an art object. Drawing their inspiration from the same Soviet reality and attesting to the ephemeral artistic effervescence that occurred at the moment of the Thaw, they closely echo the music of Tishchenko. So it is with the text by Nicolas Bokov, a dissident writer forced into exile by the same regime.

ОтчётыДинамический диапазон

foobar2000 1.3.8 / Dynamic Range Meter 1.1.1
log date: 2015-07-06 16:37:27
--------------------------------------------------------------------------------
Analyzed: Gabriel Tchalik / Tishchenko: Complete Violin Works
--------------------------------------------------------------------------------
DR Peak RMS Duration Track
--------------------------------------------------------------------------------
DR14 0.00 dB -17.54 dB 14:11 01-Fantasy for Violin and Piano, Op. 118
DR15 -6.22 dB -25.95 dB 1:40 02-Sonata for Solo Violin No. 1, Op. 5: I. Allegro
DR14 -3.75 dB -23.89 dB 5:02 03-Sonata for Solo Violin No. 1, Op. 5: II. Andante
DR14 -0.49 dB -20.64 dB 4:06 04-Sonata for Solo Violin No. 1, Op. 5: III. Allegro ma non troppo (Energico)
DR16 0.00 dB -22.10 dB 8:28 05-Rondo for Violin and Piano, Op. 2
DR15 0.00 dB -18.65 dB 5:31 06-Capriccio for Violin and Piano, Op. 31
DR17 0.00 dB -21.92 dB 3:44 07-Two Dances in an Ancient Style for Violin and Piano, Op. 62 bis
DR15 -2.66 dB -21.77 dB 4:22 08-Sonata for Solo Violin No. 2, Op. 63: I. Prelude (Maestoso)
DR14 -1.62 dB -26.62 dB 2:40 09-Sonata for Solo Violin No. 2, Op. 63: II. Intermezzo I (Presto)
DR16 -1.01 dB -20.82 dB 4:35 10-Sonata for Solo Violin No. 2, Op. 63: III. Allegro
DR16 -1.35 dB -24.45 dB 2:33 11-Sonata for Solo Violin No. 2, Op. 63: IV. Intermezzo II (Presto)
DR13 -5.76 dB -24.19 dB 11:46 12-Sonata for Solo Violin No. 2, Op. 63: V. Aria (Andante)
DR14 -0.90 dB -22.96 dB 2:53 13-Sonata for Solo Violin No. 2, Op. 63: VI. Intermezzo III (Presto)
DR14 -0.05 dB -18.88 dB 2:58 14-Sonata for Solo Violin No. 2, Op. 63: VII. Postlude (Maestoso)
--------------------------------------------------------------------------------
Number of tracks: 14
Official DR value: DR15
Samplerate: 88200 Hz
Channels: 2
Bits per sample: 24
Bitrate: 2501 kbps
Codec: FLAC
================================================================================

Скриншот спектра частот

Доп. информация

При скачивании, если необходимо, переименуйте папку, в которой будет находиться альбомБольшая просьба к скачавшим поддерживать раздачу! Помогайте другим, ведь вам тоже может понадобиться помощь!Не забываем говорить "Спасибо"!Комментарии приветствуются!
[teatrix.ru].t21665.torrent 
Торрент: Зарегистрирован [ 2016-03-20 12:49 ] · 4F1BE4BC3627CCE849FFA9C5A88AA810FCE98241

Скачать .torrent

Скачать

14 KB

Статус: проверено
Скачан: 1 раз
Размер: 1.2 GB
terms.php



Быстрый ответ

Имя:

      
Для отправки сообщений необходимо включить JavaScript
Показать сообщения:    

Текущее время: 09-Дек 16:35

Часовой пояс: UTC + 3


Вы можете начинать темы
Вы можете отвечать на сообщения
Вы не можете редактировать свои сообщения
Вы не можете удалять свои сообщения
Вы не можете голосовать в опросах
Вы не можете прикреплять файлы к сообщениям
Вы можете скачивать файлы