(Classical) Моцарт – Симфония № 38; Воржишек – Симфония / Mozart – Symphony No. 38; Vorisek – Symphony (Prague Philharmonia, Jiri Belohlavek) - 2003, FLAC (image+.cue) lossless


 

[Цитировать]

Моцарт – Симфония № 38; Воржишек – Симфония / Mozart – Symphony No. 38; Voříšek – Symphony (Prague Philharmonia, Jiří Bělohlávek)
Жанр: Classical
Страна-производитель диска: Чехия
Год издания диска: 2003
Издатель (лейбл): Supraphon
Номер по каталогу: SU 3713-2 031
Дата записи: 17 — 18 октября 2002 г. и 10 — 11 марта 2003 г., Прага.
Аудиокодек: FLAC
Тип рипа: image+.cue
Битрейт аудио: lossless
Продолжительность: 01:00:31
Источник: odeonmusic
Наличие сканов в содержимом раздачи: да
Треклист:-Иоганн Хризостом Вольфганг Теофил Моцарт (1756 — 1791).
Симфония № 38 D-dur «Пражская», KV 504 (1786).
01. I. Adagio. — Allegro [12:36].
02. II. Andante [12:29].
03. III. Presto [07:26].-Ян Вацлав Гуго Воржишек (1791 — 1825).
Симфония D-dur, [op. 23/24] (1821?/1823, опубл. 1825?; 1957).
04. I. Allegro con brio [07:22].
05. II. Andante [08:08].
06. III. Scherzo. Allegro ma non troppo. — Trio. — Scherzo da capo. — Coda [06:20].
07. IV. Finale. Allegro con brio [05:41].-Исполнители:
Prague Philharmonia.
Дирижер Jiří Bělohlávek.-

Лог создания рипа

Exact Audio Copy V1.0 beta 3 from 29. August 2011
EAC extraction logfile from 7. October 2012, 21:16
Prague Philharmonia, Jiri Belohlavek / Mozart, Vorisek - Symphonies - Bélohlávek
Used drive : TSSTcorpCDDVDW TS-L633M Adapter: 1 ID: 0
Read mode : Secure
Utilize accurate stream : Yes
Defeat audio cache : Yes
Make use of C2 pointers : No
Read offset correction : 6
Overread into Lead-In and Lead-Out : No
Fill up missing offset samples with silence : Yes
Delete leading and trailing silent blocks : No
Null samples used in CRC calculations : Yes
Used interface : Native Win32 interface for Win NT & 2000
Used output format : User Defined Encoder
Selected bitrate : 320 kBit/s
Quality : High
Add ID3 tag : No
Command line compressor : C:\Program Files\Exact Audio Copy\Flac\flac.exe
Additional command line options : -8 -V -T "TITLE=%title%" -T "ARTIST=%artist%" -T "ALBUMARTIST=%albumartist%" -T "ALBUM=%albumtitle%" -T "DATE=%year%" -T "TRACKNUMBER=%tracknr%" -T "TRACKTOTAL=%numtracks%" -T "GENRE=%genre%" -T "COMMENT=%comment%" -T "PERFORMER=%albuminterpret%" -T "COMPOSER=%composer%" %source% -o %dest%
TOC of the extracted CD
Track | Start | Length | Start sector | End sector
---------------------------------------------------------
1 | 0:00.00 | 12:40.72 | 0 | 57071
2 | 12:40.72 | 12:31.60 | 57072 | 113456
3 | 25:12.57 | 7:33.25 | 113457 | 147456
4 | 32:46.07 | 7:25.13 | 147457 | 180844
5 | 40:11.20 | 8:12.70 | 180845 | 217814
6 | 48:24.15 | 6:23.70 | 217815 | 246609
7 | 54:48.10 | 5:41.55 | 246610 | 272239
Range status and errors
Selected range
Filename C:\Users\JS\Desktop\Mozart, Vorisek - Symphonies - Bélohlávek\Mozart, Vorisek - Symphonies - Bélohlávek.wav
Peak level 98.9 %
Extraction speed 2.1 X
Range quality 100.0 %
Test CRC EDC5BD71
Copy CRC EDC5BD71
Copy OK
No errors occurred
AccurateRip summary
Track 1 not present in database
Track 2 not present in database
Track 3 not present in database
Track 4 not present in database
Track 5 not present in database
Track 6 not present in database
Track 7 not present in database
None of the tracks are present in the AccurateRip database
End of status report

Содержание индексной карты (.CUE)

REM GENRE Symphony
REM DATE 2003
REM DISCID 5D0E2D07
REM COMMENT "ExactAudioCopy v1.0b3"
PERFORMER "Prague Philharmonia, Jiri Belohlavek"
TITLE "Mozart & Vorisek – Symphonies – Jiri Belohlavek"
FILE "Mozart & Vorisek – Symphonies – Jiri Belohlavek.flac" WAVE
TRACK 01 AUDIO
TITLE "Mozart - Symphony No. 38 'Prague' in D major, K. 504 - I. Adagio - Allegro"
PERFORMER "Prague Philharmonia, Jiri Belohlavek"
INDEX 01 00:00:00
TRACK 02 AUDIO
TITLE "Mozart - Symphony No. 38 'Prague' in D major, K. 504 - II. Andante"
PERFORMER "Prague Philharmonia, Jiri Belohlavek"
INDEX 00 12:36:72
INDEX 01 12:40:72
TRACK 03 AUDIO
TITLE "Mozart - Symphony No. 38 'Prague' in D major, K. 504 - III. Presto"
PERFORMER "Prague Philharmonia, Jiri Belohlavek"
INDEX 00 25:10:05
INDEX 01 25:12:57
TRACK 04 AUDIO
TITLE "Vorisek - Symphony in D major - I. Allegro con spirito"
PERFORMER "Prague Philharmonia, Jiri Belohlavek"
INDEX 00 32:38:67
INDEX 01 32:46:07
TRACK 05 AUDIO
TITLE "Vorisek - Symphony in D major - II. Andante"
PERFORMER "Prague Philharmonia, Jiri Belohlavek"
INDEX 00 40:08:34
INDEX 01 40:11:20
TRACK 06 AUDIO
TITLE "Vorisek - Symphony in D major - III. Scherzo. Allegro ma non troppo"
PERFORMER "Prague Philharmonia, Jiri Belohlavek"
INDEX 00 48:20:02
INDEX 01 48:24:15
TRACK 07 AUDIO
TITLE "Vorisek - Symphony in D major - IV. Finale. Allegro con brio"
PERFORMER "Prague Philharmonia, Jiri Belohlavek"
INDEX 00 54:45:10
INDEX 01 54:48:10

Вариант индексной карты (.CUE) с убранными зазорами

REM GENRE Symphony
REM DATE 2003
REM DISCID 5D0E2D07
REM COMMENT "ExactAudioCopy v1.0b3"
PERFORMER "Prague Philharmonia, Jiri Belohlavek"
TITLE "Mozart & Vorisek – Symphonies – Jiri Belohlavek"
FILE "Mozart & Vorisek – Symphonies – Jiri Belohlavek.flac" WAVE
TRACK 01 AUDIO
TITLE "Mozart - Symphony No. 38 'Prague' in D major, K. 504 - I. Adagio - Allegro"
PERFORMER "Prague Philharmonia, Jiri Belohlavek"
INDEX 01 00:00:00
TRACK 02 AUDIO
TITLE "Mozart - Symphony No. 38 'Prague' in D major, K. 504 - II. Andante"
PERFORMER "Prague Philharmonia, Jiri Belohlavek"
INDEX 01 12:40:72
TRACK 03 AUDIO
TITLE "Mozart - Symphony No. 38 'Prague' in D major, K. 504 - III. Presto"
PERFORMER "Prague Philharmonia, Jiri Belohlavek"
INDEX 01 25:12:57
TRACK 04 AUDIO
TITLE "Vorisek - Symphony in D major - I. Allegro con spirito"
PERFORMER "Prague Philharmonia, Jiri Belohlavek"
INDEX 00 32:40:00
INDEX 01 32:46:07
TRACK 05 AUDIO
TITLE "Vorisek - Symphony in D major - II. Andante"
PERFORMER "Prague Philharmonia, Jiri Belohlavek"
INDEX 01 40:11:20
TRACK 06 AUDIO
TITLE "Vorisek - Symphony in D major - III. Scherzo. Allegro ma non troppo"
PERFORMER "Prague Philharmonia, Jiri Belohlavek"
INDEX 01 48:24:15
TRACK 07 AUDIO
TITLE "Vorisek - Symphony in D major - IV. Finale. Allegro con brio"
PERFORMER "Prague Philharmonia, Jiri Belohlavek"
INDEX 01 54:48:10



Показать сообщения:    

Текущее время: 08-Дек 12:58

Часовой пояс: UTC + 3


Вы не можете начинать темы
Вы не можете отвечать на сообщения
Вы не можете редактировать свои сообщения
Вы не можете удалять свои сообщения
Вы не можете голосовать в опросах
Вы не можете прикреплять файлы к сообщениям
Вы не можете скачивать файлы