(Classical, period) Воржишек – Симфония; Антонин Рейха – Увертюра на 5/8, симфония op. 41 / Vorisek – Symphony; Anton Reicha – Overture & Symphony (Musica Florea, Marek Stryncl) - 2010, FLAC (image+.cue) lossless


 

[Цитировать]

Воржишек – Симфония; Антонин Рейха – Увертюра на 5/8, симфония op. 41 / Voříšek – Symphony; Anton Reicha – Overture & Symphony (Musica Florea, Marek Štryncl)
Жанр: Classical, period
Страна-производитель диска: Чехия
Год издания диска: 2010
Издатель (лейбл): Arta
Номер по каталогу: F10185
Дата записи: не указана
Аудиокодек: FLAC
Тип рипа: image+.cue
Битрейт аудио: lossless
Продолжительность: 01:01:55
Источник: odeonmusic
Наличие сканов в содержимом раздачи: да
Треклист:-Ян Вацлав Гуго Воржишек (1791 — 1825).-Симфония D-dur, [op. 23/24] (1821?/1823, опубл. 1825?; 1957).
01. I. Allegro con brio [07:02].
02. II. Andante [07:28].
03. III. Scherzo. Allegro ma non troppo. — Trio. — Scherzo da capo. — Coda [06:31].
04. IV. Finale. Allegro con brio [06:03].-Антонин Рейха (1770 — 1836).-Увертюра D-dur (до 1799, 2-я ред. 1823).
05. Allegro un poco vivo [13:24].
Симфония Es-dur (т. наз. «первая»), op. 41 (1799, опубл. 1802/1803).
06. I. Largo. — Allegro spirituoso [06:12].
07. II. Andante un poco adagio [05:48].
08. III. Menuetto. Allegro. — Trio. — Menuetto da capo [03:38].
09. IV. Finale. Un poco vivo [05:46].-Исполнители:
Musica Florea (на инструментах эпохи).
Дирижер Marek Štryncl.-

Лог создания рипа

Exact Audio Copy V1.0 beta 3 from 29. August 2011
EAC extraction logfile from 24. March 2012, 12:34
Marek Štryncl / Vorisek, Rejcha - Symphonies - Stryncl
Used drive : HL-DT-STDVDRAM GSA-H10A Adapter: 0 ID: 0
Read mode : Secure
Utilize accurate stream : Yes
Defeat audio cache : Yes
Make use of C2 pointers : No
Read offset correction : 667
Overread into Lead-In and Lead-Out : No
Fill up missing offset samples with silence : Yes
Delete leading and trailing silent blocks : No
Null samples used in CRC calculations : Yes
Used interface : Native Win32 interface for Win NT & 2000
Used output format : User Defined Encoder
Selected bitrate : 1024 kBit/s
Quality : High
Add ID3 tag : No
Command line compressor : C:\Program Files\Exact Audio Copy\Flac\flac.exe
Additional command line options : -8 -V -T "TITLE=%title%" -T "ARTIST=%artist%" -T "ALBUMARTIST=%albumartist%" -T "ALBUM=%albumtitle%" -T "DATE=%year%" -T "TRACKNUMBER=%tracknr%" -T "TRACKTOTAL=%numtracks%" -T "GENRE=%genre%" -T "COMMENT=%comment%" -T "PERFORMER=%albuminterpret%" -T "COMPOSER=%composer%" %source% -o %dest%
TOC of the extracted CD
Track | Start | Length | Start sector | End sector
---------------------------------------------------------
1 | 0:00.00 | 7:02.47 | 0 | 31696
2 | 7:02.47 | 7:28.21 | 31697 | 65317
3 | 14:30.68 | 6:31.42 | 65318 | 94684
4 | 21:02.35 | 6:03.33 | 94685 | 121942
5 | 27:05.68 | 13:24.11 | 121943 | 182253
6 | 40:30.04 | 6:12.35 | 182254 | 210188
7 | 46:42.39 | 5:48.10 | 210189 | 236298
8 | 52:30.49 | 3:38.30 | 236299 | 252678
9 | 56:09.04 | 5:46.15 | 252679 | 278643
Range status and errors
Selected range
Filename F:\Ripped general\[9920] Vorisek, Rejcha - Symphonies - Stryncl\Vorisek, Rejcha - Symphonies - Stryncl.wav
Peak level 96.9 %
Extraction speed 7.6 X
Range quality 100.0 %
Test CRC BFC5C2F6
Copy CRC BFC5C2F6
Copy OK
No errors occurred
AccurateRip summary
Track 1 accurately ripped (confidence 1) [4ECC885D] (AR v2)
Track 2 accurately ripped (confidence 1) [D1051CC8] (AR v2)
Track 3 accurately ripped (confidence 1) [9F4081A1] (AR v2)
Track 4 accurately ripped (confidence 1) [A322DFDB] (AR v2)
Track 5 accurately ripped (confidence 1) [0CCC190B] (AR v2)
Track 6 accurately ripped (confidence 1) [670237BA] (AR v2)
Track 7 accurately ripped (confidence 1) [11CFC4AE] (AR v2)
Track 8 accurately ripped (confidence 1) [B8762425] (AR v2)
Track 9 accurately ripped (confidence 1) [6B07D9DB] (AR v2)
All tracks accurately ripped
End of status report

Содержание индексной карты (.CUE)

REM GENRE Classical
REM DATE 2010
REM DISCID 6C0E8309
REM COMMENT "ExactAudioCopy v1.0b3"
PERFORMER "Stryncl"
TITLE "Vorisek & Anton Reicha – Symphonies – Marek Stryncl"
FILE "Vorisek & Anton Reicha – Symphonies – Marek Stryncl.flac" WAVE
TRACK 01 AUDIO
TITLE "Vorisek - Symphony D major - I. Allegro con spirito"
PERFORMER "Stryncl"
FLAGS DCP
INDEX 01 00:00:00
TRACK 02 AUDIO
TITLE "Vorisek - Symphony D major - II. Andante"
PERFORMER "Stryncl"
FLAGS DCP
INDEX 01 07:02:47
TRACK 03 AUDIO
TITLE "Vorisek - Symphony D major - III. Scherzo. Allegro ma non troppo"
PERFORMER "Stryncl"
FLAGS DCP
INDEX 01 14:30:68
TRACK 04 AUDIO
TITLE "Vorisek - Symphony D major - IV. Finale. Allegro con brio"
PERFORMER "Stryncl"
FLAGS DCP
INDEX 01 21:02:35
TRACK 05 AUDIO
TITLE "Anton Reicha - Overture in D major"
PERFORMER "Stryncl"
FLAGS DCP
INDEX 01 27:05:68
TRACK 06 AUDIO
TITLE "Anton Reicha - Symphony in E flat major, Op. 41 - I. Largo - Allegro spirituoso"
PERFORMER "Stryncl"
FLAGS DCP
INDEX 01 40:30:04
TRACK 07 AUDIO
TITLE "Anton Reicha - Symphony in E flat major, Op. 41 - II. Andante un poco adagio"
PERFORMER "Stryncl"
FLAGS DCP
INDEX 01 46:42:39
TRACK 08 AUDIO
TITLE "Anton Reicha - Symphony in E flat major, Op. 41 - III. Menuetto. Allegro - Trio"
PERFORMER "Stryncl"
FLAGS DCP
INDEX 01 52:30:49
TRACK 09 AUDIO
TITLE "Anton Reicha - Symphony in E flat major, Op. 41 - IV. Finale. Un poco vivo"
PERFORMER "Stryncl"
FLAGS DCP
INDEX 01 56:09:04

Вариант индексной карты (.CUE) с выставленными зазорами

REM GENRE Classical
REM DATE 2010
REM DISCID 6C0E8309
REM COMMENT "ExactAudioCopy v1.0b3"
PERFORMER "Stryncl"
TITLE "Vorisek & Anton Reicha – Symphonies – Marek Stryncl"
FILE "Vorisek & Anton Reicha – Symphonies – Marek Stryncl.flac" WAVE
TRACK 01 AUDIO
FLAGS DCP
TITLE "Vorisek - Symphony D major - I. Allegro con spirito"
PERFORMER "Stryncl"
INDEX 00 00:00:00
INDEX 01 00:02:68
TRACK 02 AUDIO
FLAGS DCP
TITLE "Vorisek - Symphony D major - II. Andante"
PERFORMER "Stryncl"
INDEX 01 07:02:47
TRACK 03 AUDIO
FLAGS DCP
TITLE "Vorisek - Symphony D major - III. Scherzo. Allegro ma non troppo"
PERFORMER "Stryncl"
INDEX 01 14:30:68
TRACK 04 AUDIO
FLAGS DCP
TITLE "Vorisek - Symphony D major - IV. Finale. Allegro con brio"
PERFORMER "Stryncl"
INDEX 01 21:02:35
TRACK 05 AUDIO
FLAGS DCP
TITLE "Anton Reicha - Overture in D major"
PERFORMER "Stryncl"
INDEX 00 26:59:54
INDEX 01 27:05:68
TRACK 06 AUDIO
FLAGS DCP
TITLE "Anton Reicha - Symphony in E flat major, Op. 41 - I. Largo - Allegro spirituoso"
PERFORMER "Stryncl"
INDEX 00 40:25:00
INDEX 01 40:30:04
TRACK 07 AUDIO
FLAGS DCP
TITLE "Anton Reicha - Symphony in E flat major, Op. 41 - II. Andante un poco adagio"
PERFORMER "Stryncl"
INDEX 01 46:42:39
TRACK 08 AUDIO
FLAGS DCP
TITLE "Anton Reicha - Symphony in E flat major, Op. 41 - III. Menuetto. Allegro - Trio"
PERFORMER "Stryncl"
INDEX 01 52:30:49
TRACK 09 AUDIO
FLAGS DCP
TITLE "Anton Reicha - Symphony in E flat major, Op. 41 - IV. Finale. Un poco vivo"
PERFORMER "Stryncl"
INDEX 01 56:09:04
INDEX 02 61:52:73



Показать сообщения:    

Текущее время: 25-Янв 00:22

Часовой пояс: UTC + 3


Вы не можете начинать темы
Вы не можете отвечать на сообщения
Вы не можете редактировать свои сообщения
Вы не можете удалять свои сообщения
Вы не можете голосовать в опросах
Вы не можете прикреплять файлы к сообщениям
Вы не можете скачивать файлы