(Classical) Воржишек – Симфония; сочинения для фортепиано с оркестром / Vorisek – Symphony; Variations & Rondeau for piano & orchestra (Boris Kranjny; Prague Chamber Orchestra, Ivan Parik) - 1986, FLAC (image+.cue) lossless


 

[Цитировать]

Воржишек – Симфония; сочинения для фортепиано с оркестром / Voříšek – Symphony; Variations & Rondeau for piano & orchestra (Boris Kranjný; Prague Chamber Orchestra, Ivan Pařík)
Жанр: Classical
Страна-производитель диска: Чехословакия
Год издания диска: 1986
Издатель (лейбл): Supraphon
Номер по каталогу: 10 3868-2 031
Дата записи: 30 – 31 марта (1 — 4) и 5 октября (5 — 6) 1984 г., Прага.
Аудиокодек: FLAC
Тип рипа: image+.cue
Битрейт аудио: lossless
Продолжительность: 00:54:27
Источник: odeonmusic
Наличие сканов в содержимом раздачи: да
Треклист:-Ян Вацлав Гуго Воржишек (1791 — 1825).-Симфония D-dur, [op. 23/24] (1821?/1823, опубл. 1825?; 1957).
01. I. Allegro con brio [08:08].
02. II. Andante [07:35].
03. III. Scherzo. Allegro ma non troppo. — Trio. — Scherzo da capo. — Coda [06:20].
04. IV. Finale. Allegro con brio [04:30].
Бравурные вариации (Variations de bravoure) B-dur для фортепиано с оркестром, op. 14 (ок. 1820, опубл. 1823).
05. [Тема.] —
(06.) — [Вариация I.] —
(07.) — [Вариация II.] —
(08.) — [Вариация III.] —
(09.) — [Вариация IV.] —
(10.) — [Вариация V.] —
(11.) — [Вариация VI.] —
(12.) — [Кода] [14:01].
06. Интродукция и блестящее рондо D-dur для фортепиано с оркестром, op. 22 (1817; опубл. 1826) [13:23].-Исполнители:
Boris Kranjný (фортепиано).
Prague Chamber Orchestra.
Дирижер Ivan Pařík.-

Лог создания рипа

Exact Audio Copy V1.0 beta 3 from 29. August 2011
EAC extraction logfile from 27. February 2012, 19:16
- / Voříšek - Symphony & Piano and orchestra - Parik
Used drive : HL-DT-STDVDRAM GSA-H10A Adapter: 0 ID: 0
Read mode : Secure
Utilize accurate stream : Yes
Defeat audio cache : Yes
Make use of C2 pointers : No
Read offset correction : 667
Overread into Lead-In and Lead-Out : No
Fill up missing offset samples with silence : Yes
Delete leading and trailing silent blocks : No
Null samples used in CRC calculations : Yes
Used interface : Native Win32 interface for Win NT & 2000
Used output format : User Defined Encoder
Selected bitrate : 1024 kBit/s
Quality : High
Add ID3 tag : No
Command line compressor : C:\Program Files\Exact Audio Copy\Flac\flac.exe
Additional command line options : -8 -V -T "TITLE=%title%" -T "ARTIST=%artist%" -T "ALBUMARTIST=%albumartist%" -T "ALBUM=%albumtitle%" -T "DATE=%year%" -T "TRACKNUMBER=%tracknr%" -T "TRACKTOTAL=%numtracks%" -T "GENRE=%genre%" -T "COMMENT=%comment%" -T "PERFORMER=%albuminterpret%" -T "COMPOSER=%composer%" %source% -o %dest%
TOC of the extracted CD
Track | Start | Length | Start sector | End sector
---------------------------------------------------------
1 | 0:00.33 | 8:13.62 | 33 | 37069
2 | 8:14.20 | 7:37.53 | 37070 | 71397
3 | 15:51.73 | 6:22.60 | 71398 | 100107
4 | 22:14.58 | 4:37.30 | 100108 | 120912
5 | 26:52.13 | 14:09.10 | 120913 | 184597
6 | 41:01.23 | 13:25.47 | 184598 | 245019
Range status and errors
Selected range
Filename F:\Ripped general\[0300] Voříšek - Symphony & Piano and orchestra - Parik\Voříšek - Symphony & Piano and orchestra - Parik.wav
Peak level 86.7 %
Extraction speed 7.3 X
Range quality 100.0 %
Test CRC 1C121D60
Copy CRC 1C121D60
Copy OK
No errors occurred
AccurateRip summary
Track 1 accurately ripped (confidence 2) [28EF8BF4] (AR v1)
Track 2 accurately ripped (confidence 2) [5956E7F9] (AR v1)
Track 3 accurately ripped (confidence 2) [9BF96F1B] (AR v1)
Track 4 accurately ripped (confidence 2) [2D4022A7] (AR v1)
Track 5 accurately ripped (confidence 2) [02982FF4] (AR v1)
Track 6 accurately ripped (confidence 2) [351DB9DD] (AR v1)
All tracks accurately ripped
End of status report

Содержание индексной карты (.CUE)

REM GENRE Classical
REM DATE 1984
REM DISCID 4E0CC206
REM COMMENT "ExactAudioCopy v1.0b3"
PERFORMER "Ivan Parik"
TITLE "Vorisek – Symphony; works for piano & orchestra – Ivan Parik"
FILE "Vorisek – Symphony; works for piano & orchestra – Ivan Parik.flac" WAVE
TRACK 01 AUDIO
TITLE "Symphony in D major - I. Allegro con brio"
PERFORMER "Ivan Parik"
FLAGS PRE
INDEX 00 00:00:00
INDEX 01 00:00:33
TRACK 02 AUDIO
TITLE "Symphony in D major - II. Andante"
PERFORMER "Ivan Parik"
FLAGS PRE
INDEX 00 08:10:23
INDEX 01 08:14:20
TRACK 03 AUDIO
TITLE "Symphony in D major - III. Scherzo. Allegro ma non troppo"
PERFORMER "Ivan Parik"
FLAGS PRE
INDEX 00 15:50:70
INDEX 01 15:51:73
TRACK 04 AUDIO
TITLE "Symphony in D major - IV. Finale. Allegro con brio"
PERFORMER "Ivan Parik"
FLAGS PRE
INDEX 00 22:14:20
INDEX 01 22:14:58
TRACK 05 AUDIO
TITLE "Variations de bravoure for piano & orchestra, Op. 14"
PERFORMER "Boris Krajny & Ivan Parik"
FLAGS PRE
INDEX 00 26:46:70
INDEX 01 26:52:13
TRACK 06 AUDIO
TITLE "Introduction et rondeau brillant fo piano & orchestra, Op. 22"
PERFORMER "Boris Krajny & Ivan Parik"
FLAGS PRE
INDEX 00 40:56:03
INDEX 01 41:01:23

Вариант индексной карты (.CUE) с убранными зазорами

REM GENRE Classical
REM DATE 1984
REM DISCID 4E0CC206
REM COMMENT "ExactAudioCopy v1.0b3"
PERFORMER "Ivan Parik"
TITLE "Vorisek – Symphony; works for piano & orchestra – Ivan Parik"
FILE "Vorisek – Symphony; works for piano & orchestra – Ivan Parik.flac" WAVE
TRACK 01 AUDIO
FLAGS PRE
TITLE "Symphony in D major - I. Allegro con brio"
PERFORMER "Ivan Parik"
INDEX 00 00:00:00
INDEX 01 00:00:33
TRACK 02 AUDIO
FLAGS PRE
TITLE "Symphony in D major - II. Andante"
PERFORMER "Ivan Parik"
INDEX 01 08:14:20
TRACK 03 AUDIO
FLAGS PRE
TITLE "Symphony in D major - III. Scherzo. Allegro ma non troppo"
PERFORMER "Ivan Parik"
INDEX 01 15:51:73
TRACK 04 AUDIO
FLAGS PRE
TITLE "Symphony in D major - IV. Finale. Allegro con brio"
PERFORMER "Ivan Parik"
INDEX 01 22:14:58
TRACK 05 AUDIO
FLAGS PRE
TITLE "Variations de bravoure for piano & orchestra, Op. 14"
PERFORMER "Boris Krajny & Ivan Parik"
INDEX 00 26:47:69
INDEX 01 26:52:13
TRACK 06 AUDIO
FLAGS PRE
TITLE "Introduction et rondeau brillant fo piano & orchestra, Op. 22"
PERFORMER "Boris Krajny & Ivan Parik"
INDEX 00 40:56:72
INDEX 01 41:01:23

Вариант индексной карты (.CUE) с убранными зазорами и разделением Вариаций на отдельные треки

REM GENRE Classical
REM DATE 1984
REM DISCID 4E0CC206
REM COMMENT "ExactAudioCopy v1.0b3"
PERFORMER "Ivan Parik"
TITLE "Vorisek – Symphony; works for piano & orchestra – Ivan Parik"
FILE "Vorisek – Symphony; works for piano & orchestra – Ivan Parik.flac" WAVE
TRACK 01 AUDIO
FLAGS PRE
TITLE "Symphony in D major - I. Allegro con brio"
PERFORMER "Ivan Parik"
INDEX 00 00:00:00
INDEX 01 00:00:33
TRACK 02 AUDIO
FLAGS PRE
TITLE "Symphony in D major - II. Andante"
PERFORMER "Ivan Parik"
INDEX 01 08:14:20
TRACK 03 AUDIO
FLAGS PRE
TITLE "Symphony in D major - III. Scherzo. Allegro ma non troppo"
PERFORMER "Ivan Parik"
INDEX 01 15:51:73
TRACK 04 AUDIO
FLAGS PRE
TITLE "Symphony in D major - IV. Finale. Allegro con brio"
PERFORMER "Ivan Parik"
INDEX 01 22:14:58
TRACK 05 AUDIO
FLAGS PRE
TITLE "Variations de bravoure for piano & orchestra, Op. 14 - Tema -"
PERFORMER "Boris Krajny & Ivan Parik"
INDEX 00 26:47:69
INDEX 01 26:52:13
TRACK 06 AUDIO
FLAGS PRE
TITLE "Variations de bravoure for piano & orchestra, Op. 14 - Variazione I -"
PERFORMER "Boris Krajny & Ivan Parik"
INDEX 01 28:18:48
TRACK 07 AUDIO
FLAGS PRE
TITLE "Variations de bravoure for piano & orchestra, Op. 14 - Variazione II -"
PERFORMER "Boris Krajny & Ivan Parik"
INDEX 01 29:30:45
TRACK 08 AUDIO
FLAGS PRE
TITLE "Variations de bravoure for piano & orchestra, Op. 14 - Variazione III -"
PERFORMER "Boris Krajny & Ivan Parik"
INDEX 01 30:46:70
TRACK 09 AUDIO
FLAGS PRE
TITLE "Variations de bravoure for piano & orchestra, Op. 14 - Variazione IV -"
PERFORMER "Boris Krajny & Ivan Parik"
INDEX 01 32:03:58
TRACK 10 AUDIO
FLAGS PRE
TITLE "Variations de bravoure for piano & orchestra, Op. 14 - Variazione V -"
PERFORMER "Boris Krajny & Ivan Parik"
INDEX 01 33:32:63
TRACK 11 AUDIO
FLAGS PRE
TITLE "Variations de bravoure for piano & orchestra, Op. 14 - Variazione finale -"
PERFORMER "Boris Krajny & Ivan Parik"
INDEX 01 35:41:04
TRACK 12 AUDIO
FLAGS PRE
TITLE "Variations de bravoure for piano & orchestra, Op. 14 - Coda"
PERFORMER "Boris Krajny & Ivan Parik"
INDEX 01 37:24:23
TRACK 13 AUDIO
FLAGS PRE
TITLE "Introduction et rondeau brillant fo piano & orchestra, Op. 22"
PERFORMER "Boris Krajny & Ivan Parik"
INDEX 00 40:56:72
INDEX 01 41:01:23



Показать сообщения:    

Текущее время: 10-Дек 21:33

Часовой пояс: UTC + 3


Вы не можете начинать темы
Вы не можете отвечать на сообщения
Вы не можете редактировать свои сообщения
Вы не можете удалять свои сообщения
Вы не можете голосовать в опросах
Вы не можете прикреплять файлы к сообщениям
Вы не можете скачивать файлы