(Classical) Воржишек – Симфония и месса / Vorisek – Symphony & Mass (Patrice Michaels, Tami Jantzi, William Watson, Peter van de Graaf; Prague Chamber Choir, Czech National Symphony Orchestra, Paul Freeman) - 2001, FLAC (image+.cue) lossless


 

[Цитировать]

Воржишек – Симфония и месса / Voříšek – Symphony & Mass (Czech National Symphony Orchestra, Paul Freeman)
Жанр: Classical
Страна-производитель диска: США
Год издания диска: 2001
Издатель (лейбл): Cedille
Номер по каталогу: CDR 90000 058
Дата записи: 8 — 9 (месса) и 13 — 14 (симфония) ноября 2000 г., Прага.
Аудиокодек: FLAC
Тип рипа: image+.cue
Битрейт аудио: lossless
Продолжительность: 01:00:35
Источник: odeonmusic
Наличие сканов в содержимом раздачи: да
Треклист:-Ян Вацлав Гуго Воржишек (1791 — 1825).-Симфония D-dur, [op. 23/24] (1821?/1823, опубл. 1825?; 1957).
01. I. Allegro con brio [07:46].
02. II. Andante [07:34].
03. III. Scherzo. Allegro ma non troppo. — Trio. — Scherzo da capo. — Coda [06:28].
04. IV. Finale. Allegro con brio [05:59].
Торжественная месса B-dur для солистов (SATB), хора (SATB) и оркестра, [op. 24] (1824 — 1825).
I. Kyrie.
05. Kyrie eleison [03:56].
II. Gloria.
06. Et in terra. — [02:14].
07. Qui tollis. — [02:35].
08. Quoniam tu solus [02:57].
III. Credo.
09. Patrem omnipotentem. — [03:16].
10. Et incarnatus est. — [02:39].
11. Et resurrexit [04:24].
IV. Sanctus.
12. Sanctus [01:19].
V. Benedictus.
13. Benedictus [03:56].
VI. Agnus Dei.
14. Agnus Dei. — [02:41].
15. Dona nobis [02:04].-Исполнители:
Patrice Michaels (сопрано),
Tami Jantzi (меццо-сопрано),
William Watson (тенор),
Peter van de Graaf (бас).
Prague Chamber Choir.
Czech National Symphony Orchestra.
Дирижер Paul Freeman.-

Лог создания рипа

Exact Audio Copy V1.0 beta 3 from 29. August 2011
EAC extraction logfile from 16. December 2013, 18:46
Paul Freeman / Vorisek - Symphony in D major, Mass in B flat major - Paul Freeman
Used drive : TSSTcorpCDDVDW SH-222BB Adapter: 2 ID: 1
Read mode : Secure
Utilize accurate stream : Yes
Defeat audio cache : Yes
Make use of C2 pointers : No
Read offset correction : 6
Overread into Lead-In and Lead-Out : No
Fill up missing offset samples with silence : Yes
Delete leading and trailing silent blocks : No
Null samples used in CRC calculations : Yes
Used interface : Native Win32 interface for Win NT & 2000
Used output format : User Defined Encoder
Selected bitrate : 1024 kBit/s
Quality : High
Add ID3 tag : No
Command line compressor : C:\Program Files\Exact Audio Copy\Flac\flac.exe
Additional command line options : -8 -V -T "TITLE=%title%" -T "ARTIST=%artist%" -T "ALBUMARTIST=%albumartist%" -T "ALBUM=%albumtitle%" -T "DATE=%year%" -T "TRACKNUMBER=%tracknr%" -T "TRACKTOTAL=%numtracks%" -T "GENRE=%genre%" -T "COMMENT=%comment%" -T "PERFORMER=%albuminterpret%" -T "COMPOSER=%composer%" %source% -o %dest%
TOC of the extracted CD
Track | Start | Length | Start sector | End sector
---------------------------------------------------------
1 | 0:00.00 | 7:50.05 | 0 | 35254
2 | 7:50.05 | 7:37.62 | 35255 | 69591
3 | 15:27.67 | 6:31.25 | 69592 | 98941
4 | 21:59.17 | 6:06.68 | 98942 | 126459
5 | 28:06.10 | 3:59.45 | 126460 | 144429
6 | 32:05.55 | 2:14.05 | 144430 | 154484
7 | 34:19.60 | 2:35.40 | 154485 | 166149
8 | 36:55.25 | 3:00.15 | 166150 | 179664
9 | 39:55.40 | 3:19.07 | 179665 | 194596
10 | 43:14.47 | 2:40.73 | 194597 | 206669
11 | 45:55.45 | 4:27.72 | 206670 | 226766
12 | 50:23.42 | 1:19.58 | 226767 | 232749
13 | 51:43.25 | 4:00.12 | 232750 | 250761
14 | 55:43.37 | 2:41.73 | 250762 | 262909
15 | 58:25.35 | 2:07.72 | 262910 | 272506
Range status and errors
Selected range
Filename G:\Ripped general\[8275] Voříšek – Symphony in D major, Mass in B flat major – Paul Freeman\Vorisek - Symphony in D major, Mass in B flat major - Paul Freeman.wav
Peak level 100.0 %
Extraction speed 6.8 X
Range quality 99.9 %
Test CRC D9A41A84
Copy CRC D9A41A84
Copy OK
No errors occurred
AccurateRip summary
Track 1 accurately ripped (confidence 1) [AB52E4A3] (AR v1)
Track 2 accurately ripped (confidence 1) [C31961AD] (AR v1)
Track 3 accurately ripped (confidence 1) [5AE4AB03] (AR v1)
Track 4 accurately ripped (confidence 1) [700D8504] (AR v1)
Track 5 accurately ripped (confidence 1) [A5F645AC] (AR v1)
Track 6 accurately ripped (confidence 1) [CE913434] (AR v1)
Track 7 accurately ripped (confidence 1) [299D50DC] (AR v1)
Track 8 accurately ripped (confidence 1) [0A7A03E5] (AR v1)
Track 9 accurately ripped (confidence 1) [D30E2C23] (AR v1)
Track 10 accurately ripped (confidence 1) [B09EAFE2] (AR v1)
Track 11 accurately ripped (confidence 1) [0EE96489] (AR v1)
Track 12 accurately ripped (confidence 1) [F85C8010] (AR v1)
Track 13 accurately ripped (confidence 1) [F3A383BB] (AR v1)
Track 14 accurately ripped (confidence 1) [7BC913CD] (AR v1)
Track 15 accurately ripped (confidence 1) [2C6CFEC1] (AR v1)
All tracks accurately ripped
End of status report

Содержание индексной карты (.CUE)

REM GENRE Classical
REM DATE 2001
REM DISCID DA0E310F
REM COMMENT "ExactAudioCopy v1.0b3"
PERFORMER "Paul Freeman"
TITLE "Vorisek – Symphony & Mass – Paul Freeman"
FILE "Vorisek – Symphony & Mass – Paul Freeman.flac" WAVE
TRACK 01 AUDIO
TITLE "Symphony in D major - I. Allegro con brio"
PERFORMER "Paul Freeman"
INDEX 01 00:00:00
TRACK 02 AUDIO
TITLE "Symphony in D major - II. Andante"
PERFORMER "Paul Freeman"
INDEX 00 07:46:37
INDEX 01 07:50:05
TRACK 03 AUDIO
TITLE "Symphony in D major - III. Scherzo. Allegro ma non troppo"
PERFORMER "Paul Freeman"
INDEX 00 15:24:27
INDEX 01 15:27:67
TRACK 04 AUDIO
TITLE "Symphony in D major - IV. Finale. Allegro con brio"
PERFORMER "Paul Freeman"
INDEX 00 21:55:67
INDEX 01 21:59:17
TRACK 05 AUDIO
TITLE "Mass in B flat major - I. Kyrie"
PERFORMER "Paul Freeman"
INDEX 00 27:58:40
INDEX 01 28:06:10
TRACK 06 AUDIO
TITLE "Mass in B flat major - II. Gloria - Et in terra -"
PERFORMER "Paul Freeman"
INDEX 00 32:03:15
INDEX 01 32:05:55
TRACK 07 AUDIO
TITLE "Mass in B flat major - II. Gloria - Qui tollis -"
PERFORMER "Paul Freeman"
INDEX 01 34:19:60
TRACK 08 AUDIO
TITLE "Mass in B flat major - II. Gloria - Quoniam tu solus"
PERFORMER "Paul Freeman"
INDEX 01 36:55:25
TRACK 09 AUDIO
TITLE "Mass in B flat major - III. Credo - Patrem omnipotentem -"
PERFORMER "Paul Freeman"
INDEX 00 39:52:72
INDEX 01 39:55:40
TRACK 10 AUDIO
TITLE "Mass in B flat major - III. Credo - Et incarnatus est -"
PERFORMER "Paul Freeman"
INDEX 00 43:12:05
INDEX 01 43:14:47
TRACK 11 AUDIO
TITLE "Mass in B flat major - III. Credo - Et resurrexit"
PERFORMER "Paul Freeman"
INDEX 00 45:54:42
INDEX 01 45:55:45
TRACK 12 AUDIO
TITLE "Mass in B flat major - IV. Sanctus"
PERFORMER "Paul Freeman"
INDEX 00 50:20:37
INDEX 01 50:23:42
TRACK 13 AUDIO
TITLE "Mass in B flat major - V. Benedictus"
PERFORMER "Paul Freeman"
INDEX 01 51:43:25
TRACK 14 AUDIO
TITLE "Mass in B flat major - VI. Agnus Dei - Agnus Dei"
PERFORMER "Paul Freeman"
INDEX 00 55:39:70
INDEX 01 55:43:37
TRACK 15 AUDIO
TITLE "Mass in B flat major - VI. Agnus Dei - Dona nobis"
PERFORMER "Paul Freeman"
INDEX 01 58:25:35



Показать сообщения:    

Текущее время: 08-Дек 09:02

Часовой пояс: UTC + 3


Вы не можете начинать темы
Вы не можете отвечать на сообщения
Вы не можете редактировать свои сообщения
Вы не можете удалять свои сообщения
Вы не можете голосовать в опросах
Вы не можете прикреплять файлы к сообщениям
Вы не можете скачивать файлы