(Classic) Rafaella Milanesi, G.A.P. Ensemble - I musicisti dell'imperatore (Piani, Caldara, Scarlatti, Vivaldi) - 2015, FLAC (image+.cue) lossless


 

[Цитировать]

Rafaella Milanesi, G.A.P. Ensemble - I musicisti dell'imperatore (Piani, Caldara, Scarlatti, Vivaldi)
Жанр: Classic
Страна-производитель диска: Germany
Год издания диска: 2015
Издатель (лейбл): Pan Classics
Дата записи: 2014
Аудиокодек: FLAC
Тип рипа: image+.cue
Битрейт аудио: lossless
Продолжительность: 74:10
Источник: собственный рип
Наличие сканов в содержимом раздачи: да
Треклист:
1. Giovanni Antonio Piani (1678-1760)
Sonatas for violin Et b.c. Op.1
nos 1, 3, 9
2. Antonio Caldara (1670-1736)
Cantata "Risoluto son gia tiranno amore"
3. Alessandro Scarlatti (1660-1725)
Cantata "Appena chiudo gli occhi"
4. Antonio Vivaldi (1678-1741)
Cantata "Lungi dal vago volto" RV 680
Исполнители:
Rafaella Milanesi soprano
G.A.P. Ensemble
Emilio Percan violin
Oriol Aymat Fuste violoncello
Luca Quintavalle harpsichord

Лог создания рипа

Exact Audio Copy V1.0 beta 6 from 9. April 2015
Отчёт EAC об извлечении, выполненном 5. июля 2015, 22:40
G.A.P Ensemble / Musicisti dellґ imperatore
Дисковод: ASUS DRW-24B5ST Adapter: 1 ID: 0
Режим чтения : Достоверность
Использование точного потока : Да
Отключение кэша аудио : Да
Использование указателей C2 : Нет
Коррекция смещения при чтении : 6
Способность читать области Lead-in и Lead-out : Нет
Заполнение пропущенных сэмплов тишиной : Да
Удаление блоков с тишиной в начале и конце : Нет
При вычислениях CRC использовались нулевые сэмплы : Да
Интерфейс : Встроенный Win32-интерфейс для Win NT/2000
Выходной формат : Пользовательский кодировщик
Выбранный битрейт : 128 kBit/s
Качество : Высокий
Добавление ID3-тега : Нет
Утилита сжатия : C:\Program Files (x86)\Exact Audio Copy\flac-1.3.1-win\win64\flac.exe
Дополнительные параметры : -V -8 -T "Date=%year%" -T "Genre=%genre%" %source%
TOC извлечённого CD
Трек | Старт | Длительность | Начальный сектор | Конечный сектор
---------------------------------------------------------------------
1 | 0:00.00 | 2:02.26 | 0 | 9175
2 | 2:02.26 | 2:44.38 | 9176 | 21513
3 | 4:46.64 | 2:59.23 | 21514 | 34961
4 | 7:46.12 | 2:18.73 | 34962 | 45384
5 | 10:05.10 | 0:50.41 | 45385 | 49175
6 | 10:55.51 | 3:25.18 | 49176 | 64568
7 | 14:20.69 | 0:46.72 | 64569 | 68090
8 | 15:07.66 | 4:34.67 | 68091 | 88707
9 | 19:42.58 | 2:04.68 | 88708 | 98075
10 | 21:47.51 | 2:52.08 | 98076 | 110983
11 | 24:39.59 | 3:05.14 | 110984 | 124872
12 | 27:44.73 | 4:30.45 | 124873 | 145167
13 | 32:15.43 | 1:30.57 | 145168 | 151974
14 | 33:46.25 | 2:07.67 | 151975 | 161566
15 | 35:54.17 | 7:01.67 | 161567 | 193208
16 | 42:56.09 | 0:47.39 | 193209 | 196772
17 | 43:43.48 | 2:35.44 | 196773 | 208441
18 | 46:19.17 | 2:25.23 | 208442 | 219339
19 | 48:44.40 | 3:24.70 | 219340 | 234709
20 | 52:09.35 | 2:39.73 | 234710 | 246707
21 | 54:49.33 | 1:59.58 | 246708 | 255690
22 | 56:49.16 | 1:53.10 | 255691 | 264175
23 | 58:42.26 | 10:18.07 | 264176 | 310532
24 | 69:00.33 | 3:03.50 | 310533 | 324307
25 | 72:04.08 | 2:04.26 | 324308 | 333633
Характеристики диапазона извлечения и сообщения об ошибках
Выбранный диапазон
Имя файла C:\Users\Тарик\Music\Старинная музыка\I musicisti dell'imperatore\G.A.P Ensemble - Musicisti dellґ imperatore.wav
Пиковый уровень 94.9 %
Скорость извлечения 9.7 X
Качество диапазона 99.9 %
CRC теста C95CF5C5
CRC копии C95CF5C5
Копирование... OK
Ошибок не произошло
AccurateRip: сводка
Трек 1 : извлечено точно (доверие 1) [F00B577A] (AR v2)
Трек 2 : извлечено точно (доверие 1) [7ADE2ED1] (AR v2)
Трек 3 : извлечено точно (доверие 1) [C54A89B5] (AR v2)
Трек 4 : извлечено точно (доверие 1) [0D4A3B1C] (AR v2)
Трек 5 : извлечено точно (доверие 1) [EA7EF98D] (AR v2)
Трек 6 : извлечено точно (доверие 1) [884682DA] (AR v2)
Трек 7 : извлечено точно (доверие 1) [B60D42C6] (AR v2)
Трек 8 : извлечено точно (доверие 1) [A10D8FBD] (AR v2)
Трек 9 : извлечено точно (доверие 1) [AF8FBAD6] (AR v2)
Трек 10 : извлечено точно (доверие 1) [BD7831E6] (AR v2)
Трек 11 : извлечено точно (доверие 1) [1AD801DC] (AR v2)
Трек 12 : извлечено точно (доверие 1) [EC3F7229] (AR v2)
Трек 13 : извлечено точно (доверие 1) [D1D0157A] (AR v2)
Трек 14 : извлечено точно (доверие 1) [6105549E] (AR v2)
Трек 15 : извлечено точно (доверие 1) [0F5EC1C9] (AR v2)
Трек 16 : извлечено точно (доверие 1) [B4BF7AA7] (AR v2)
Трек 17 : извлечено точно (доверие 1) [5D7A6A7E] (AR v2)
Трек 18 : извлечено точно (доверие 1) [000B4BE8] (AR v2)
Трек 19 : извлечено точно (доверие 1) [C88BDEC2] (AR v2)
Трек 20 : извлечено точно (доверие 1) [A889D8CA] (AR v2)
Трек 21 : извлечено точно (доверие 1) [46A21814] (AR v2)
Трек 22 : извлечено точно (доверие 1) [E8343858] (AR v2)
Трек 23 : извлечено точно (доверие 1) [94BA6F4E] (AR v2)
Трек 24 : извлечено точно (доверие 1) [0F41DE2F] (AR v2)
Трек 25 : извлечено точно (доверие 1) [0F0AAD26] (AR v2)
Все треки извлечены точно
Конец отчёта
==== Контрольная сумма отчёта 86E690FBDFABA43036A5D0A69486D60F84573CD6CA3EE2CFC8447CA9CBFCE43A ====

Содержание индексной карты (.CUE)

REM GENRE Classical
REM DISCID 6B116019
REM COMMENT "ExactAudioCopy v1.0b6"
CATALOG 7619990103245
PERFORMER "G.A.P Ensemble"
TITLE "Musicisti dellґ imperatore"
FILE "G.A.P Ensemble - Musicisti dellґ imperatore.flac" WAVE
TRACK 01 AUDIO
TITLE "G.A.Piani: Sonata g-Moll op.1,1 - Preludio"
PERFORMER "G.A.P Ensemble"
ISRC CH1491532401
FLAGS DCP
INDEX 01 00:00:00
TRACK 02 AUDIO
TITLE "G.A.Piani: Sonata g-Moll op.1,1 - Allemanda"
PERFORMER "G.A.P Ensemble"
ISRC CH1491532402
FLAGS DCP
INDEX 01 02:02:26
TRACK 03 AUDIO
TITLE "G.A.Piani: Sonata g-Moll op.1,1 - Sarabanda"
PERFORMER "G.A.P Ensemble"
ISRC CH1491532403
FLAGS DCP
INDEX 01 04:46:64
TRACK 04 AUDIO
TITLE "G.A.Piani: Sonata g-Moll op.1,1 - Giga"
PERFORMER "G.A.P Ensemble"
ISRC CH1491532404
FLAGS DCP
INDEX 01 07:46:12
TRACK 05 AUDIO
TITLE "A.Caldara: Risoluto son giа - Rec. 'Risoluto son giа'"
PERFORMER "Raffaella Milanesi, G.A.P Ensemble"
ISRC CH1491532405
FLAGS DCP
INDEX 00 09:59:10
INDEX 01 10:05:10
TRACK 06 AUDIO
TITLE "A.Caldara: Risoluto son giа - Aria 'Arma frodi'"
PERFORMER "Raffaella Milanesi, G.A.P Ensemble"
ISRC CH1491532406
FLAGS DCP
INDEX 01 10:55:51
TRACK 07 AUDIO
TITLE "A.Caldara: Risoluto son giа - Rec. 'Quel panico spavento'"
PERFORMER "Raffaella Milanesi, G.A.P Ensemble"
ISRC CH1491532407
FLAGS DCP
INDEX 01 14:20:69
TRACK 08 AUDIO
TITLE "A.Caldara: Risoluto son giа - Aria 'Guerra, guerra'"
PERFORMER "Raffaella Milanesi, G.A.P Ensemble"
ISRC CH1491532408
FLAGS DCP
INDEX 01 15:07:66
TRACK 09 AUDIO
TITLE "G.A.Piani: Sonata F-Dur op.1,3 - Preludio"
PERFORMER "G.A.P Ensemble"
ISRC CH1491532409
FLAGS DCP
INDEX 00 19:36:55
INDEX 01 19:42:58
TRACK 10 AUDIO
TITLE "G.A.Piani: Sonata F-Dur op.1,3 - Corrente"
PERFORMER "G.A.P Ensemble"
ISRC CH1491532410
FLAGS DCP
INDEX 01 21:47:51
TRACK 11 AUDIO
TITLE "G.A.Piani: Sonata F-Dur op.1,3 - Sarabanda"
PERFORMER "G.A.P Ensemble"
ISRC CH1491532411
FLAGS DCP
INDEX 01 24:39:59
TRACK 12 AUDIO
TITLE "G.A.Piani: Sonata F-Dur op.1,3 - Siciliana"
PERFORMER "G.A.P Ensemble"
ISRC CH1491532412
FLAGS DCP
INDEX 01 27:44:73
TRACK 13 AUDIO
TITLE "A.Scarlatti: Sogno - Andante"
PERFORMER "Raffaella Milanesi, G.A.P Ensemble"
ISRC CH1491532413
FLAGS DCP
INDEX 00 32:09:52
INDEX 01 32:15:43
TRACK 14 AUDIO
TITLE "A.Scarlatti: Sogno - Adagio, 'Appena chiudo gli occhi'"
PERFORMER "Raffaella Milanesi, G.A.P Ensemble"
ISRC CH1491532414
FLAGS DCP
INDEX 01 33:46:25
TRACK 15 AUDIO
TITLE "A.Scarlatti: Sogno - 'Dolce sonno'"
PERFORMER "Raffaella Milanesi, G.A.P Ensemble"
ISRC CH1491532415
FLAGS DCP
INDEX 01 35:54:17
TRACK 16 AUDIO
TITLE "A.Scarlatti: Sogno - Rec. 'Se dellґ idolo mio'"
PERFORMER "Raffaella Milanesi, G.A.P Ensemble"
ISRC CH1491532416
FLAGS DCP
INDEX 01 42:56:09
TRACK 17 AUDIO
TITLE "A.Scarlatti: Sogno - Aria 'Amico sonno'"
PERFORMER "Raffaella Milanesi, G.A.P Ensemble"
ISRC CH1491532417
FLAGS DCP
INDEX 01 43:43:48
TRACK 18 AUDIO
TITLE "G.A.Piani: Sonata a-Moll op.1,9 - Preludio"
PERFORMER "G.A.P Ensemble"
ISRC CH1491532418
FLAGS DCP
INDEX 00 46:12:66
INDEX 01 46:19:17
TRACK 19 AUDIO
TITLE "G.A.Piani: Sonata a-Moll op.1,9 - Allemanda"
PERFORMER "G.A.P Ensemble"
ISRC CH1491532419
FLAGS DCP
INDEX 01 48:44:40
TRACK 20 AUDIO
TITLE "G.A.Piani: Sonata a-Moll op.1,9 - Grave"
PERFORMER "G.A.P Ensemble"
ISRC CH1491532420
FLAGS DCP
INDEX 01 52:09:35
TRACK 21 AUDIO
TITLE "G.A.Piani: Sonata a-Moll op.1,9 - Giga"
PERFORMER "G.A.P Ensemble"
ISRC CH1491532421
FLAGS DCP
INDEX 01 54:49:33
TRACK 22 AUDIO
TITLE "A.Vivaldi: Lungi dal vago volto - Rec. 'Lungi dal vago volto'"
PERFORMER "Raffaella Milanesi, G.A.P Ensemble"
ISRC CH1491532422
FLAGS DCP
INDEX 00 56:43:18
INDEX 01 56:49:16
TRACK 23 AUDIO
TITLE "A.Vivaldi: Lungi dal vago volto - Aria 'Augeletti'"
PERFORMER "Raffaella Milanesi, G.A.P Ensemble"
ISRC CH1491532423
FLAGS DCP
INDEX 01 58:42:26
TRACK 24 AUDIO
TITLE "A.Vivaldi: Lungi dal vago volto - Rec. 'Allegrezza, mio core'"
PERFORMER "Raffaella Milanesi, G.A.P Ensemble"
ISRC CH1491532424
FLAGS DCP
INDEX 01 69:00:33
TRACK 25 AUDIO
TITLE "A.Vivaldi: Lungi dal vago volto - Aria 'Mi stringerai'"
PERFORMER "Raffaella Milanesi, G.A.P Ensemble"
ISRC CH1491532425
FLAGS DCP
INDEX 01 72:04:08

Лог проверки качества

AUDIOCHECKER v2.0 beta (build 457) - by Dester - opdester@freemail.hu
~~~~~~~~~~~~~~~~~~~~~~~~~~~~~~~~~~
Started at: вторник, 23. 06. 2015. - 10:49.06
69 files found
01 -===- C:\Users\Тарик\Music\Grigory Sokolov - Complete Recordings\Bach\G. Sokolo
-----------------------------------------------------------
Started at: вторник, 23. 06. 2015. - 10:51.49
1 file found
1 -===- C:\Users\Тарик\Music\Русский праздник\Russian Celebration.flac
Extracted successfully
Conclusion: this track is CDDA with probability 100%
Tempfile successfully deleted.
Finished at: вторник, 23. 06. 2015. - 10:53.46 (operation time: 0:01.57)
-----------------------------------------------------------
Started at: вторник, 23. 06. 2015. - 16:58.29
1 file found
1 -===- C:\Users\Тарик\Music\Лена Семенова Первая премия Первого Московского конкурса скрипачей имени Паганини\Lena_Semenova.flac
Extracted successfully
Conclusion: this track is MPEG with probability 90%
Tempfile successfully deleted.
Finished at: вторник, 23. 06. 2015. - 17:01.00 (operation time: 0:02.30)
-----------------------------------------------------------
Started at: вторник, 23. 06. 2015. - 17:15.30
1 file found
1 -===- C:\Users\Тарик\Music\Лена Семёнова Первая премия Первого Московского конкурса скрипачей имени Паганини\Lena_Semenova.flac
Extracted successfully
Conclusion: this track is MPEG with probability 90%
Tempfile successfully deleted.
Finished at: вторник, 23. 06. 2015. - 17:17.45 (operation time: 0:02.14)
-----------------------------------------------------------
Started at: вторник, 23. 06. 2015. - 17:18.41
1 file found
1 -===- C:\Users\Тарик\Music\Лена Семёнова Первая премия Первого Московского конкурса скрипачей имени Паганини\Lena_Semenova.flac
Extracted successfully
Conclusion: this track is MPEG with probability 90%
Tempfile successfully deleted.
Finished at: вторник, 23. 06. 2015. - 17:20.57 (operation time: 0:02.15)
-----------------------------------------------------------
Started at: вторник, 23. 06. 2015. - 17:23.13
1 file found
1 -===- C:\Users\Тарик\Music\Лена Семёнова Первая премия Первого Московского конкурса скрипачей имени Паганини\Lena_Semenova.flac
Extracted successfully
Conclusion: this track is MPEG with probability 90%
Tempfile successfully deleted.
Finished at: вторник, 23. 06. 2015. - 17:25.28 (operation time: 0:02.14)
-----------------------------------------------------------
Started at: вторник, 23. 06. 2015. - 17:35.29
1 file found
1 -===- C:\Users\Тарик\Music\Концерт лауреатов и членов Жюри Первого Московского конкурса скрипачей имени Паганини\Concert_of_prizewinners_and_Jury_members.flac
Extracted successfully
Conclusion: this track is CDDA with probability 100%
Tempfile successfully deleted.
Finished at: вторник, 23. 06. 2015. - 17:38.29 (operation time: 0:02.59)
-----------------------------------------------------------
Started at: вторник, 23. 06. 2015. - 20:01.16
1 file found
1 -===- C:\Users\Тарик\Music\Лена Семёнова Первая премия Первого Московского конкурса скрипачей имени Паганини\Лена Семёнова - Первый Московский конкурс скрипачей имени паганини.flac
Extracted successfully
Conclusion: this track is MPEG with probability 91%
Tempfile successfully deleted.
Finished at: вторник, 23. 06. 2015. - 20:03.45 (operation time: 0:02.29)
-----------------------------------------------------------
Started at: вторник, 23. 06. 2015. - 20:05.18
1 file found
1 -===- C:\Users\Тарик\Music\Лена Семёнова Первая премия Первого Московского конкурса скрипачей имени Паганини\Лена Семёнова - Первый Московский конкурс скрипачей имени паганини.flac
Extracted successfully
Conclusion: this track is MPEG with probability 91%
Tempfile successfully deleted.
Finished at: вторник, 23. 06. 2015. - 20:07.42 (operation time: 0:02.23)
-----------------------------------------------------------
Started at: вторник, 23. 06. 2015. - 22:29.43
1 file found
1 -===- C:\Users\Тарик\Music\Концерт лауреатов и членов Жюри Первого Московского конкурса скрипачей имени Паганини\Концерт лауреатов и членов жюри Первого Московского конкурса скрипачей им. Паганини.flac
Extracted successfully
Conclusion: this track is CDDA with probability 100%
Tempfile successfully deleted.
Finished at: вторник, 23. 06. 2015. - 22:32.41 (operation time: 0:02.58)
-----------------------------------------------------------
Started at: среда, 24. 06. 2015. - 9:44.51
1 file found
1 -===- C:\Users\Тарик\Music\Георгий Свиридов\Романтическая классика\Георгий Свиридов Романтическая Классика.flac
Extracted successfully
Conclusion: this track is CDDA with probability 100%
Tempfile successfully deleted.
Finished at: среда, 24. 06. 2015. - 9:48.01 (operation time: 0:03.09)
-----------------------------------------------------------
Started at: среда, 24. 06. 2015. - 18:05.18
1 file found
1 -===- C:\Users\Тарик\Music\Концерт лауреатов и членов Жюри Первого Московского конкурса скрипачей имени Паганини\Концерт лауреатов и членов жюри Первого Московского конкурса скрипачей им. Паганини.flac
Extracted successfully
Conclusion: this track is CDDA with probability 100%
Tempfile successfully deleted.
Finished at: среда, 24. 06. 2015. - 18:08.39 (operation time: 0:03.20)
-----------------------------------------------------------
Started at: среда, 01. 07. 2015. - 23:10.36
1 file found
1 -===- C:\Users\Тарик\Music\Давид Ойстрах\Русская Исполнительская Школа.flac
Extracted successfully
Conclusion: this track is CDDA with probability 100%
Tempfile successfully deleted.
Finished at: среда, 01. 07. 2015. - 23:13.20 (operation time: 0:02.43)
-----------------------------------------------------------
Started at: четверг, 02. 07. 2015. - 22:51.31
1 file found
1 -===- C:\Users\Тарик\Music\Леонид Коган\Русская Исполнительская Школа 2.flac
Extracted successfully
Conclusion: this track is CDDA with probability 86%
Tempfile successfully deleted.
Finished at: четверг, 02. 07. 2015. - 22:53.27 (operation time: 0:01.56)
-----------------------------------------------------------
Started at: воскресенье, 05. 07. 2015. - 13:19.32
1 file found
1 -===- C:\Users\Тарик\Music\Бах\Никому не известный Бах\Artem Agazhanov (piano) - The unknown (to anybody) Bach.flac
Extracted successfully
Conclusion: this track is MPEG with probability 100%
Tempfile successfully deleted.
Finished at: воскресенье, 05. 07. 2015. - 13:21.58 (operation time: 0:02.26)
-----------------------------------------------------------
Started at: вторник, 07. 07. 2015. - 12:56.21
1 file found
1 -===- C:\Users\Тарик\Music\Старинная музыка\I musicisti dell'imperatore\G.A.P Ensemble - Musicisti dellґ imperatore.flac
Extracted successfully
Conclusion: this track is CDDA with probability 100%
Tempfile successfully deleted.
Finished at: вторник, 07. 07. 2015. - 12:59.18 (operation time: 0:02.56)



Показать сообщения:    

Текущее время: 10-Дек 15:48

Часовой пояс: UTC + 3


Вы не можете начинать темы
Вы не можете отвечать на сообщения
Вы не можете редактировать свои сообщения
Вы не можете удалять свои сообщения
Вы не можете голосовать в опросах
Вы не можете прикреплять файлы к сообщениям
Вы не можете скачивать файлы