(Classical vocal organ) Magdalena Kozena, Christian Schmitt - Prayer [Voice & Organ] (Giuseppe Verdi, Henry Purcell, Leos Janacek, Petr Eben, Franz Schubert, Maurice Ravel, JS Bach, Hugo Wolf, Georges Bizet) - 2014, FLAC (tracks+.cue) lossless


 

[Цитировать]

Magdalena Kozena, Christian Schmitt - Prayer - Voice & Organ

Жанр: Classical vocal organ
Страна-производитель диска: Made in Germany?
Год издания диска: 2014
Издатель (лейбл): Deutsche Grammophon GmbH, Berlin
Номер по каталогу: 002021202
Дата записи: 2013
Аудиокодек: FLAC
Тип рипа: tracks+.cue
Битрейт аудио: lossless
Продолжительность: 01:24:40
Источник: релизер
сайт-источник/ник/другое: peotuvave (рип не его)
Наличие сканов в содержимом раздачи: да
Треклист:

скрытый текст

Franz Schubert (1797-1828)
1. Totengräbers Heimweh, D 842 05:42
Johann Sebastian Bach (1685-1750)
2. Komm, süßer Tod, komm, sel'ge Ruh!, BWV 478 03:16
Hugo Wolf (1860-1903)
3. Karwoche 03:54
Maurice Ravel (1875-1937)
4. Kaddisch 04:34
Georges Bizet (1838-1875)
5. Agnus Dei 03:08
Franz Schubert (1797-1828)
6. Ellens Gesang III (Hymne an die Jungfrau), D 839 05:44
Hugo Wolf (1860-1903)
7. Mühvoll komm ich und beladen 04:42
Henry Purcell (1659–1695)
8. Tell Me, Some Pitying Angel (The Blessed Virgin's... 07:15
Antonin Dvorak (1841-1904)
9. Ave Maria, Op.19b 03:01
Johann Sebastian Bach (1685-1750)
10. So gibst du nun, mein Jesu, gute Nacht!, BWV 501 02:10
Franz Schubert (1797-1828)
11. Himmelsfunken, D 651 02:54
Hugo Wolf (1860-1903)
12. Zum neuen Jahr 01:43
Johann Sebastian Bach (1685-1750)
13. Die güldne Sonne, BWV 451 01:13
Franz Schubert (1797-1828)
14. Vom Mitleiden Mariä, D 632 03:46
Hugo Wolf (1860-1903)
15. Schlafendes Jesukind 03:11
Franz Schubert (1797-1828)
16. Litanei auf das Fest Allerseelen, D 343 04:41
Giuseppe Verdi (1813–1901)
17. Ave Maria 05:03
Hugo Wolf (1860-1903)
18. Gebet 02:02
Franz Schubert (1797-1828)
19. Der Leidende, D 432 01:52
Johann Sebastian Bach (1685-1750)
20. Mein Jesu, was für Seelenweh, BWV 487 02:32
Maurice Duruflé
21. Notre Père, Op.14 01:25
Johann Sebastian Bach (1685-1750)
22. Kommt, Seelen, dieser Tag, BWV 479 01:06
Petr Eben (1929-2007)
23. Die Hochzeit zu Kana 06:54
Leos Janacek (1854-1928)
24. Glagolitic Mass - 7. Varhany Solo 02:53
Исполнители:

скрытый текст

Magdalena Kožená (mezzo-soprano)
Christian Schmitt (organ)
Prayer Voice & Organ
Композиторы:
Giuseppe Verdi, Henry Purcell, Maurice Duruflé, Leos Janacek, Petr Eben, Franz Schubert, Maurice Ravel, JS Bach,
Hugo Wolf, Georges Bizet
Recorded: September 2013 at Konzertsaal der Hochschule
für katholische Kirchenmusik und Musikpädagogik, Regensburg, Germany

Лог создания рипа

Exact Audio Copy V1.0 beta 3 from 29. August 2011
EAC extraction logfile from 2. July 2015, 11:19
Magdalena Kožená, Christian Schmitt / Prayer - Voice & Organ
Used drive : hp DVD-RAM GHB0N Adapter: 0 ID: 0
Read mode : Secure
Utilize accurate stream : Yes
Defeat audio cache : Yes
Make use of C2 pointers : No
Read offset correction : 6
Overread into Lead-In and Lead-Out : No
Fill up missing offset samples with silence : Yes
Delete leading and trailing silent blocks : No
Null samples used in CRC calculations : Yes
Used interface : Native Win32 interface for Win NT & 2000
Gap handling : Appended to previous track
Used output format : User Defined Encoder
Selected bitrate : 1024 kBit/s
Quality : High
Add ID3 tag : No
Command line compressor : C:\Program Files (x86)\Exact Audio Copy\Flac\flac.exe
Additional command line options : -8 -V -T "ARTIST=%artist%" -T "TITLE=%title%" -T "ALBUM=%albumtitle%" -T "DATE=%year%" -T "TRACKNUMBER=%tracknr%" -T "GENRE=%genre%" -T "PERFORMER=%albuminterpret%" -T "COMPOSER=%composer%" %haslyrics%--tag-from-file=LYRICS="%lyricsfile%"%haslyrics% -T "ALBUMARTIST=%albumartist%" -T "DISCNUMBER=%cdnumber%" -T "TOTALDISCS=%totalcds%" -T "TOTALTRACKS=%numtracks%" -T "COMMENT=%comment%" %source% -o %dest%
TOC of the extracted CD
Track | Start | Length | Start sector | End sector
---------------------------------------------------------
1 | 0:00.00 | 5:41.59 | 0 | 25633
2 | 5:41.59 | 3:15.67 | 25634 | 40325
3 | 8:57.51 | 3:53.64 | 40326 | 57864
4 | 12:51.40 | 4:34.06 | 57865 | 78420
5 | 17:25.46 | 3:07.74 | 78421 | 92519
6 | 20:33.45 | 5:44.33 | 92520 | 118352
7 | 26:18.03 | 4:41.52 | 118353 | 139479
8 | 30:59.55 | 7:14.65 | 139480 | 172094
9 | 38:14.45 | 3:00.56 | 172095 | 185650
10 | 41:15.26 | 2:09.62 | 185651 | 195387
11 | 43:25.13 | 2:54.25 | 195388 | 208462
12 | 46:19.38 | 1:42.71 | 208463 | 216183
13 | 48:02.34 | 1:12.44 | 216184 | 221627
14 | 49:15.03 | 3:45.70 | 221628 | 238572
15 | 53:00.73 | 3:11.00 | 238573 | 252897
16 | 56:11.73 | 4:40.40 | 252898 | 273937
17 | 60:52.38 | 5:03.00 | 273938 | 296662
18 | 65:55.38 | 2:02.31 | 296663 | 305843
19 | 67:57.69 | 1:51.72 | 305844 | 314240
20 | 69:49.66 | 2:31.65 | 314241 | 325630
21 | 72:21.56 | 1:24.69 | 325631 | 331999
22 | 73:46.50 | 1:05.49 | 332000 | 336923
Track 1
Filename E:\000TEMP\Kozena, Schmitt - Prayer - Voice and Organ (2014) [FLAC]\01 - Totengräbers Heimweh, D 842.wav
Pre-gap length 0:00:02.00
Peak level 93.8 %
Extraction speed 2.1 X
Track quality 100.0 %
Test CRC D57457EA
Copy CRC D57457EA
Accurately ripped (confidence 3) [F4F125B9] (AR v2)
Copy OK
Track 2
Filename E:\000TEMP\Kozena, Schmitt - Prayer - Voice and Organ (2014) [FLAC]\02 - Komm, Süßer Tod, Komm, Sel'ge Ruh!, BWV 478.wav
Peak level 93.9 %
Extraction speed 1.5 X
Track quality 99.9 %
Test CRC 6085FC09
Copy CRC 6085FC09
Accurately ripped (confidence 3) [3699BDF4] (AR v2)
Copy OK
Track 3
Filename E:\000TEMP\Kozena, Schmitt - Prayer - Voice and Organ (2014) [FLAC]\03 - Karwoche.wav
Peak level 93.9 %
Extraction speed 2.4 X
Track quality 100.0 %
Test CRC 90239C69
Copy CRC 90239C69
Accurately ripped (confidence 3) [95F7A3F9] (AR v2)
Copy OK
Track 4
Filename E:\000TEMP\Kozena, Schmitt - Prayer - Voice and Organ (2014) [FLAC]\04 - Kaddisch.wav
Peak level 94.0 %
Extraction speed 2.6 X
Track quality 100.0 %
Test CRC 9DD57337
Copy CRC 9DD57337
Accurately ripped (confidence 3) [94B8F57B] (AR v2)
Copy OK
Track 5
Filename E:\000TEMP\Kozena, Schmitt - Prayer - Voice and Organ (2014) [FLAC]\05 - Agnus Dei.wav
Peak level 93.8 %
Extraction speed 2.6 X
Track quality 100.0 %
Test CRC E6FE49FF
Copy CRC E6FE49FF
Accurately ripped (confidence 3) [32F1985C] (AR v2)
Copy OK
Track 6
Filename E:\000TEMP\Kozena, Schmitt - Prayer - Voice and Organ (2014) [FLAC]\06 - Ellens Gesang III (Hymne An Die Jungfrau), D 839.wav
Peak level 92.1 %
Extraction speed 3.0 X
Track quality 100.0 %
Test CRC 8CFBE5E8
Copy CRC 8CFBE5E8
Accurately ripped (confidence 3) [1776CE2F] (AR v2)
Copy OK
Track 7
Filename E:\000TEMP\Kozena, Schmitt - Prayer - Voice and Organ (2014) [FLAC]\07 - Mühvoll Komm Ich Und Beladen.wav
Peak level 93.9 %
Extraction speed 3.1 X
Track quality 100.0 %
Test CRC 85123640
Copy CRC 85123640
Accurately ripped (confidence 3) [37F4B5FF] (AR v2)
Copy OK
Track 8
Filename E:\000TEMP\Kozena, Schmitt - Prayer - Voice and Organ (2014) [FLAC]\08 - ll Me, Some Pitying Angel (The Blessed Virgin's Expostulation), Z 196.wav
Peak level 92.1 %
Extraction speed 3.4 X
Track quality 100.0 %
Test CRC 7FE7B415
Copy CRC 7FE7B415
Accurately ripped (confidence 3) [A2F58EA3] (AR v2)
Copy OK
Track 9
Filename E:\000TEMP\Kozena, Schmitt - Prayer - Voice and Organ (2014) [FLAC]\09 - Ave Maria, Op.19b.wav
Peak level 93.8 %
Extraction speed 3.2 X
Track quality 100.0 %
Test CRC BDA8BDFC
Copy CRC BDA8BDFC
Accurately ripped (confidence 3) [B9F36F27] (AR v2)
Copy OK
Track 10
Filename E:\000TEMP\Kozena, Schmitt - Prayer - Voice and Organ (2014) [FLAC]\10 - So Gibst Du Nun, Mein Jesu, Gute Nacht!, BWV 501.wav
Peak level 93.7 %
Extraction speed 2.5 X
Track quality 99.9 %
Test CRC 81557128
Copy CRC 81557128
Accurately ripped (confidence 3) [3BF30D95] (AR v2)
Copy OK
Track 11
Filename E:\000TEMP\Kozena, Schmitt - Prayer - Voice and Organ (2014) [FLAC]\11 - Himmelsfunken, D 651.wav
Peak level 53.8 %
Extraction speed 3.3 X
Track quality 100.0 %
Test CRC B8A95ACB
Copy CRC B8A95ACB
Accurately ripped (confidence 3) [D23266F7] (AR v2)
Copy OK
Track 12
Filename E:\000TEMP\Kozena, Schmitt - Prayer - Voice and Organ (2014) [FLAC]\12 - Zum Neuen Jahr.wav
Peak level 93.9 %
Extraction speed 2.9 X
Track quality 100.0 %
Test CRC 76256E0F
Copy CRC 76256E0F
Accurately ripped (confidence 3) [26A1ABF5] (AR v2)
Copy OK
Track 13
Filename E:\000TEMP\Kozena, Schmitt - Prayer - Voice and Organ (2014) [FLAC]\13 - Die Güldne Sonne, BWV 451.wav
Peak level 90.8 %
Extraction speed 2.7 X
Track quality 100.0 %
Test CRC 9D3D0718
Copy CRC 9D3D0718
Accurately ripped (confidence 3) [800637E1] (AR v2)
Copy OK
Track 14
Filename E:\000TEMP\Kozena, Schmitt - Prayer - Voice and Organ (2014) [FLAC]\14 - Vom Mitleiden Mariä, D 632.wav
Peak level 93.8 %
Extraction speed 3.6 X
Track quality 100.0 %
Test CRC 55B03E15
Copy CRC 55B03E15
Accurately ripped (confidence 3) [C0E3B9A8] (AR v2)
Copy OK
Track 15
Filename E:\000TEMP\Kozena, Schmitt - Prayer - Voice and Organ (2014) [FLAC]\15 - Schlafendes Jesukind.wav
Peak level 93.8 %
Extraction speed 3.6 X
Track quality 100.0 %
Test CRC 7BB24E15
Copy CRC 7BB24E15
Accurately ripped (confidence 3) [9E55D5E8] (AR v2)
Copy OK
Track 16
Filename E:\000TEMP\Kozena, Schmitt - Prayer - Voice and Organ (2014) [FLAC]\16 - Litanei Auf Das Fest Allerseelen, D 343.wav
Peak level 77.2 %
Extraction speed 3.5 X
Track quality 99.9 %
Test CRC 4315E0DE
Copy CRC 4315E0DE
Accurately ripped (confidence 3) [4E0944BE] (AR v2)
Copy OK
Track 17
Filename E:\000TEMP\Kozena, Schmitt - Prayer - Voice and Organ (2014) [FLAC]\17 - Ave Maria.wav
Peak level 93.8 %
Extraction speed 4.0 X
Track quality 100.0 %
Test CRC 5E7A504B
Copy CRC 5E7A504B
Accurately ripped (confidence 3) [FA5F4AFA] (AR v2)
Copy OK
Track 18
Filename E:\000TEMP\Kozena, Schmitt - Prayer - Voice and Organ (2014) [FLAC]\18 - Gebet.wav
Peak level 93.8 %
Extraction speed 3.5 X
Track quality 100.0 %
Test CRC 7905F0E3
Copy CRC 7905F0E3
Accurately ripped (confidence 3) [C4D15B21] (AR v2)
Copy OK
Track 19
Filename E:\000TEMP\Kozena, Schmitt - Prayer - Voice and Organ (2014) [FLAC]\19 - Der Leidende, D 432.wav
Peak level 93.9 %
Extraction speed 3.5 X
Track quality 100.0 %
Test CRC 710EF017
Copy CRC 710EF017
Accurately ripped (confidence 3) [B21EB15A] (AR v2)
Copy OK
Track 20
Filename E:\000TEMP\Kozena, Schmitt - Prayer - Voice and Organ (2014) [FLAC]\20 - Mein Jesu, Was Für Seelenweh, BWV 487.wav
Peak level 93.8 %
Extraction speed 3.8 X
Track quality 100.0 %
Test CRC 8CC72D48
Copy CRC 8CC72D48
Accurately ripped (confidence 3) [80AEF9C1] (AR v2)
Copy OK
Track 21
Filename E:\000TEMP\Kozena, Schmitt - Prayer - Voice and Organ (2014) [FLAC]\21 - Notre Père, Op.14.wav
Peak level 82.4 %
Extraction speed 3.2 X
Track quality 100.0 %
Test CRC CA3E59E1
Copy CRC CA3E59E1
Accurately ripped (confidence 3) [5DFB9A54] (AR v2)
Copy OK
Track 22
Filename E:\000TEMP\Kozena, Schmitt - Prayer - Voice and Organ (2014) [FLAC]\22 - Kommt, Seelen, Dieser Tag, BWV 479.wav
Peak level 93.8 %
Extraction speed 3.1 X
Track quality 100.0 %
Test CRC 981EDEC2
Copy CRC 981EDEC2
Accurately ripped (confidence 3) [945D73BD] (AR v2)
Copy OK
All tracks accurately ripped
No errors occurred
End of status report
---- CUETools DB Plugin V2.1.3
[CTDB TOCID: TPqWmms6RHPw6ytWraiC7gB.1fA-] found, Submit result: TPqWmms6RHPw6ytWraiC7gB.1fA- has been confirmed
[5800a14f] (6/6) Accurately ripped
==== Log checksum 32E47DDD31FB7FEEBF95BEE2EF1B72E1076343B0667A0A2CAFD35846313F4D94 ====

Содержание индексной карты (.CUE)

REM GENRE Classical
REM DATE 2014
REM DISCID 64118C16
REM COMMENT "ExactAudioCopy v1.0b3"
CATALOG 0028947920670
PERFORMER "Magdalena Kozena, Christian Schmitt"
TITLE "Prayer - Voice & Organ"
FILE "01 - Totengrabers Heimweh, D 842.wav" WAVE
TRACK 01 AUDIO
TITLE "Totengrabers Heimweh, D 842"
PERFORMER "Magdalena Kozena, Christian Schmitt"
ISRC DEN961303650
INDEX 01 00:00:00
FILE "02 - Komm, Susser Tod, Komm, Sel'ge Ruh!, BWV 478.wav" WAVE
TRACK 02 AUDIO
TITLE "Komm, Susser Tod, Komm, Sel'ge Ruh!, BWV 478"
PERFORMER "Magdalena Kozena, Christian Schmitt"
ISRC DEN961303660
INDEX 01 00:00:00
FILE "03 - Karwoche.wav" WAVE
TRACK 03 AUDIO
TITLE "Karwoche"
PERFORMER "Magdalena Kozena, Christian Schmitt"
ISRC DEN961303670
INDEX 01 00:00:00
FILE "04 - Kaddisch.wav" WAVE
TRACK 04 AUDIO
TITLE "Kaddisch"
PERFORMER "Magdalena Kozena, Christian Schmitt"
ISRC DEN961303680
INDEX 01 00:00:00
FILE "05 - Agnus Dei.wav" WAVE
TRACK 05 AUDIO
TITLE "Agnus Dei"
PERFORMER "Magdalena Kozena, Christian Schmitt"
ISRC DEN961303690
INDEX 01 00:00:00
FILE "06 - Ellens Gesang III (Hymne An Die Jungfrau), D 839.wav" WAVE
TRACK 06 AUDIO
TITLE "Ellens Gesang III (Hymne An Die Jungfrau), D 839"
PERFORMER "Magdalena Kozena, Christian Schmitt"
ISRC DEN961303700
INDEX 01 00:00:00
FILE "07 - Muhvoll Komm Ich Und Beladen.wav" WAVE
TRACK 07 AUDIO
TITLE "Muhvoll Komm Ich Und Beladen"
PERFORMER "Magdalena Kozena, Christian Schmitt"
ISRC DEN961303710
INDEX 01 00:00:00
FILE "08 - ll Me, Some Pitying Angel (The Blessed Virgin's Expostulation), Z 196.wav" WAVE
TRACK 08 AUDIO
TITLE "ll Me, Some Pitying Angel (The Blessed Virgin's Expostulation), Z 196"
PERFORMER "Magdalena Kozena, Christian Schmitt"
ISRC DEN961303720
INDEX 01 00:00:00
FILE "09 - Ave Maria, Op.19b.wav" WAVE
TRACK 09 AUDIO
TITLE "Ave Maria, Op.19b"
PERFORMER "Magdalena Kozena, Christian Schmitt"
ISRC DEN961303730
INDEX 01 00:00:00
FILE "10 - So Gibst Du Nun, Mein Jesu, Gute Nacht!, BWV 501.wav" WAVE
TRACK 10 AUDIO
TITLE "So Gibst Du Nun, Mein Jesu, Gute Nacht!, BWV 501"
PERFORMER "Magdalena Kozena, Christian Schmitt"
ISRC DEN961303740
INDEX 01 00:00:00
FILE "11 - Himmelsfunken, D 651.wav" WAVE
TRACK 11 AUDIO
TITLE "Himmelsfunken, D 651"
PERFORMER "Magdalena Kozena, Christian Schmitt"
ISRC DEN961303750
INDEX 01 00:00:00
FILE "12 - Zum Neuen Jahr.wav" WAVE
TRACK 12 AUDIO
TITLE "Zum Neuen Jahr"
PERFORMER "Magdalena Kozena, Christian Schmitt"
ISRC DEN961303750
INDEX 01 00:00:00
FILE "13 - Die Guldne Sonne, BWV 451.wav" WAVE
TRACK 13 AUDIO
TITLE "Die Guldne Sonne, BWV 451"
PERFORMER "Magdalena Kozena, Christian Schmitt"
ISRC DEN961303770
INDEX 01 00:00:00
FILE "14 - Vom Mitleiden Maria, D 632.wav" WAVE
TRACK 14 AUDIO
TITLE "Vom Mitleiden Maria, D 632"
PERFORMER "Magdalena Kozena, Christian Schmitt"
ISRC DEN961303780
INDEX 01 00:00:00
FILE "15 - Schlafendes Jesukind.wav" WAVE
TRACK 15 AUDIO
TITLE "Schlafendes Jesukind"
PERFORMER "Magdalena Kozena, Christian Schmitt"
ISRC DEN961303790
INDEX 01 00:00:00
FILE "16 - Litanei Auf Das Fest Allerseelen, D 343.wav" WAVE
TRACK 16 AUDIO
TITLE "Litanei Auf Das Fest Allerseelen, D 343"
PERFORMER "Magdalena Kozena, Christian Schmitt"
ISRC DEN961303800
INDEX 01 00:00:00
FILE "17 - Ave Maria.wav" WAVE
TRACK 17 AUDIO
TITLE "Ave Maria"
PERFORMER "Magdalena Kozena, Christian Schmitt"
ISRC DEN961303810
INDEX 01 00:00:00
FILE "18 - Gebet.wav" WAVE
TRACK 18 AUDIO
TITLE "Gebet"
PERFORMER "Magdalena Kozena, Christian Schmitt"
ISRC DEN961303820
INDEX 01 00:00:00
FILE "19 - Der Leidende, D 432.wav" WAVE
TRACK 19 AUDIO
TITLE "Der Leidende, D 432"
PERFORMER "Magdalena Kozena, Christian Schmitt"
ISRC DEN961303830
INDEX 01 00:00:00
FILE "20 - Mein Jesu, Was Fur Seelenweh, BWV 487.wav" WAVE
TRACK 20 AUDIO
TITLE "Mein Jesu, Was Fur Seelenweh, BWV 487"
PERFORMER "Magdalena Kozena, Christian Schmitt"
ISRC DEN961303840
INDEX 01 00:00:00
FILE "21 - Notre Pere, Op.14.wav" WAVE
TRACK 21 AUDIO
TITLE "Notre Pere, Op.14"
PERFORMER "Magdalena Kozena, Christian Schmitt"
ISRC DEN961303850
INDEX 01 00:00:00
FILE "22 - Kommt, Seelen, Dieser Tag, BWV 479.wav" WAVE
TRACK 22 AUDIO
TITLE "Kommt, Seelen, Dieser Tag, BWV 479"
PERFORMER "Magdalena Kozena, Christian Schmitt"
ISRC DEN961303860
INDEX 01 00:00:00



Показать сообщения:    

Текущее время: 11-Дек 11:05

Часовой пояс: UTC + 3


Вы не можете начинать темы
Вы не можете отвечать на сообщения
Вы не можете редактировать свои сообщения
Вы не можете удалять свои сообщения
Вы не можете голосовать в опросах
Вы не можете прикреплять файлы к сообщениям
Вы не можете скачивать файлы