[TR24][OF] Edvard Grieg: Piano Concerto & Lyric Pieces - Javier Perianes, BBC Symphony Orchestra & Sakari Oramo - 2015 (Classical)


Статистика раздачи [Обновить пиров]
Размер:  1.06 GB   |    Зарегистрирован:  8 месяцев 18 дней   |    Скачан:  0 раз

Полного источника не было: Никогда

 
   
 
 
 

[Цитировать]

Edvard Grieg
Piano Concerto & Lyric Pieces
Javier Perianes
BBC Symphony Orchestra · Sakari Oramo
-Год издания: 2015 | Жанр: Classical
Издатель: harmonia mundi | Продолжительность: 01:10:02
Наличие сканов: Sleeve, Digital Booklet- -Контейнер: FLAC (*.flac) | Тип рипа: tracks
Разрядность: 24bit / 96kHz | Количество каналов: 2.0
-Треклист
Edvard Grieg (1843-1907)
Piano Concerto in A minor, Op.16
01.I. Allegro molto moderato (13:41)
02. II. Adagio (6:47)
03. III. Allegro moderato molto e marcato (10:22)
Lyric Pieces
04. Arietta Op. 12: I. Poco andante e sostenuto (1:27)
05. Kanon Op. 38: VIII. Allegretto con moto (5:01)
06. Sommerfugl Op. 43: I. Allegro grazioso (1:54)
07. Ensom vandrer Op. 43: II. Allegretto semplice (2:20)
08. Melodi Op. 47: III. Allegretto (3:40)
09. Trolltog Op. 54: III. Allegro moderato (2:59)
10. Notturno Op. 54: IV. Andante (4:18)
11. Hjemve Op. 57: VI. Andante (4:34)
12. For dine födder Op. 68: III. Poco andante e molto espressivo (3:03)
13. Badnlat Op. 68: V. Allegretto tranquillamente (3:27)
14. Det var engang Op.71: I. Andante con moto - Allegro brioso (4:36)
15. Efterklang Op.71: VII. Tempo di valse (1:53)

О релизе


Miniatures and large forms.The work of a young musician of 25, the celebrated Concerto of Grieg combines the great Romantic tradition (Liszt was one of its most fervent admirers) and Norwegian folk music, with the halling and springdans of its thrilling finale. Yet the composer never wrote another, for he felt more comfortable writing in miniature forms. In 35 years he produced no fewer than 66 Lyric Pieces, every one a gem, from the truculent March of the Trolls to the poetic meditations of Homesickness and Remembrances.
Javier Perianes, piano
BBC Symphony Orchestra
Sakari Oramo, conductor

ОтчётыДинамический диапазон

foobar2000 1.3.8 / Dynamic Range Meter 1.1.1
log date: 2015-07-07 17:33:04
--------------------------------------------------------------------------------
Analyzed: Javier Perianes, BBC Symphony Orchestra, Sakari Oramo / Grieg: Piano Concerto & Lyric Pieces (1-3)
Javier Perianes / Grieg: Piano Concerto & Lyric Pieces (4-15)
--------------------------------------------------------------------------------
DR Peak RMS Duration Track
--------------------------------------------------------------------------------
DR14 -0.86 dB -20.04 dB 13:41 01-Piano Concerto in A minor, Op.16 - I. Allegro molto moderato
DR14 -2.64 dB -23.24 dB 6:47 02-Piano Concerto in A minor, Op.16 - II. Adagio
DR12 -0.30 dB -17.58 dB 10:22 03-Piano Concerto in A minor, Op.16 - III. Allegro moderato molto e marcato
DR11 -12.18 dB -32.52 dB 1:27 04-Lyric Pieces, Arietta Op. 12: I. Poco andante e sostenuto
DR15 -3.38 dB -25.61 dB 5:01 05-Lyric Pieces, Kanon Op. 38: VIII. Allegretto con moto
DR12 -7.25 dB -23.95 dB 1:54 06-Lyric Pieces, Sommerfugl Op. 43: I. Allegro grazioso
DR15 -9.01 dB -30.36 dB 2:20 07-Lyric Pieces, Ensom vandrer Op. 43: II. Allegretto semplice
DR13 -3.61 dB -24.12 dB 3:40 08-Lyric Pieces, Melodi Op. 47: III. Allegretto
DR13 -2.02 dB -21.70 dB 2:59 09-Lyric Pieces, Trolltog Op. 54: III. Allegro moderato
DR14 -6.11 dB -27.23 dB 4:18 10-Lyric Pieces, Notturno Op. 54: IV. Andante
DR15 -8.58 dB -30.34 dB 4:34 11-Lyric Pieces, Hjemve Op. 57: VI. Andante
DR15 -1.55 dB -24.07 dB 3:03 12-Lyric Pieces, For dine födder Op. 68: III. Poco andante e molto espressivo
DR14 -11.14 dB -30.94 dB 3:27 13-Lyric Pieces, Badnlat Op. 68: V. Allegretto tranquillamente
DR15 -1.17 dB -23.32 dB 4:36 14-Lyric Pieces, Det var engang Op.71: I. Andante con moto - Allegro brioso
DR15 -8.06 dB -27.97 dB 1:53 15-Lyric Pieces, Efterklang Op.71: VII. Tempo di valse
--------------------------------------------------------------------------------
Number of tracks: 15
Official DR value: DR14
Samplerate: 96000 Hz
Channels: 2
Bits per sample: 24
Bitrate: 2051 kbps
Codec: FLAC
================================================================================

Скриншот спектра частот

Доп. информация

При скачивании, если необходимо, переименуйте папку, в которой будет находиться альбомБольшая просьба к скачавшим поддерживать раздачу! Помогайте другим, ведь вам тоже может понадобиться помощь!Не забываем говорить "Спасибо"!Комментарии приветствуются!
[teatrix.ru].t21676.torrent 
Торрент: Зарегистрирован [ 2016-03-20 12:53 ] · 201A2F097A56D6A55810040EAB49F85E511F2E7E

Скачать .torrent

Скачать

13 KB

Статус: проверено
Скачан: 0 раз
Размер: 1.06 GB
terms.php



Быстрый ответ

Имя:

      
Для отправки сообщений необходимо включить JavaScript
Показать сообщения:    

Текущее время: 07-Дек 17:31

Часовой пояс: UTC + 3


Вы можете начинать темы
Вы можете отвечать на сообщения
Вы не можете редактировать свои сообщения
Вы не можете удалять свои сообщения
Вы не можете голосовать в опросах
Вы не можете прикреплять файлы к сообщениям
Вы можете скачивать файлы