[TR24][OF] Edvard Grieg, Percy Grainger, Carl Nielsen: Cello works - Andreas Brantelid, Christian Ihle Hadland - 2015 (Classical)


Статистика раздачи [Обновить пиров]
Размер:  1.12 GB   |    Зарегистрирован:  8 месяцев 19 дней   |    Скачан:  0 раз

Полного источника не было: Никогда

 
   
 
 
 

[Цитировать]

Grieg | Grainger | Nielsen
Cello works
Andreas Brantelid · Christian Ihle Hadland
-Год издания: 2015 | Жанр: Classical
Издатель: BIS Records | Продолжительность: 01:06:33
Наличие сканов: Sleeve, Digital Booklet- -Контейнер: FLAC (*.flac) | Тип рипа: tracks
Разрядность: 24bit / 96kHz | Количество каналов: 2.0
-Треклист
Edvard Grieg (1843-1907)
Sonata in A minor for Cello and Piano, Op.36 (1882–83)
01.I. Allegro agitato (9:28)
02. II. Andante molto tranquillo (6:00)
03. III. Allegro (11:59)
Intermezzo in A minor for cello and piano, EG115 (1866)
04. Intermezzo in A minor for cello and piano (3:49)
Allegretto from Violin Sonata No.3 in C minor, Op.45, arranged by the composer for cello and piano (1887)
05. Allegretto from Violin Sonata No.3 in C minor (7:02)
Andante con moto in C minor, EG116 (1878)
06. Andante con moto in C minor (9:12)
Percy Grainger (1882-1961)
La Scandinavie (Scandinavian Suite) (1902)
07. I. Air et Danse Suédoise (2:45)
08. II. Vermelandsvisa (2:13)
09. III. Polska Norvégien (2:55)
10. IV. Mélodie Danoise (3:01)
11. V. Air et Finale sur des Danses Norvégiennes (5:44)
Carl Nielsen (1865-1931)
Sænk kun dit hoved, du blomst, No.4 of Strophic Songs, Op.21/FS42
12. Sænk kun dit hoved, du blomst, No.4 of Strophic Songs (2:25)

О релизе


Although they were born forty years apart on opposite sides of the world, Edvard Grieg and Percy Grainger have much in common. The aim to become pianists and composers more or less forced both of them to leave their native countries – Norway and Australia respectively – in order to gain access to the great central European tradition that so dominated musical life during the second half of the 19th century. Grieg enrolled at the Leipzig conservatory in 1858 and Grainger at the Hoch Conservatory in Frankfurt in 1895, but their experiences were in many ways strikingly similar: both made progress as pianists, but neither of them found the German approach to the teaching of composition fruitful. Grieg’s strong attachment to Norwegian folk music made it difficult for him to compose in a way that conformed to the Germanic ideal, while Grainger some forty years later withdrew from the composition class at the conservatory in order to study privately. He too would find his greatest inspiration in folk music traditions, as exemplified in La Scandinavie for cello and piano, a suite of arrangements of Scandinavian folk songs. The two composers met in 1906, in London, and not surprisingly they got along famously. The meeting led to Grainger visiting Grieg in Bergen the following year, only two months before the older composer passed away. The Danish-Swedish cellist Andreas Brantelid and his Norwegian chamber music partner Christian Ihle Hadland have teamed up in this programme of cello works by the two composers, opening with Grieg’s celebrated Cello Sonata. They also include less well-known pieces, however, such as the composer’s arrangement of the Allegretto from his third violin sonata, and an Andante con moto intended as part of a never completed piano trio, in which they are joined by the violinist Lars Bjørnkjær. Discovered after Grieg’s death, the piece would have to wait more than 70 years before receiving its first performance.
Personnel:
Andreas Brantelid, cello
Christian Ihle Hadland, piano
Lars Bjørnkjær, violin (Grieg: Andante con moto)
Recorded: March 2014 at Potton Hall, Suffolk, England

ОтчётыДинамический диапазон

foobar2000 1.3.8 / Dynamic Range Meter 1.1.1
log date: 2015-07-07 20:35:16
--------------------------------------------------------------------------------
Analyzed: Andreas Brantelid, Christian Ihle Hadland / Grieg & Grainger: Cello works (1-11)
Andreas Brantelid, Lars Bjørnkjær, Christian Ihle Hadland / Grieg & Grainger: Cello works (12)
--------------------------------------------------------------------------------
DR Peak RMS Duration Track
--------------------------------------------------------------------------------
DR12 -0.89 dB -18.95 dB 9:28 01-Sonata in A minor for Cello and Piano, Op.36 (1882–83) - I. Allegro agitato
DR12 -2.07 dB -20.69 dB 6:00 02-Sonata in A minor for Cello and Piano, Op.36 (1882–83) - II. Andante molto tranquillo
DR13 -0.90 dB -18.38 dB 11:59 03-Sonata in A minor for Cello and Piano, Op.36 (1882–83) - III. Allegro
DR13 -6.90 dB -25.74 dB 3:49 04-Intermezzo in A minor for cello and piano, EG115 (1866)
DR13 -3.73 dB -22.73 dB 7:02 05-Allegretto from Violin Sonata No.3 in C minor, Op.45, arranged by the composer for cello and piano (1887)
DR13 -1.22 dB -21.12 dB 2:45 07-La Scandinavie (Scandinavian Suite) (1902) - I. Air et Danse Suédoise
DR11 -3.26 dB -22.74 dB 2:13 08-La Scandinavie (Scandinavian Suite) (1902) - II. Vermelandsvisa
DR13 -0.85 dB -20.65 dB 2:55 09-La Scandinavie (Scandinavian Suite) (1902) - III. Polska Norvégien
DR13 -5.72 dB -23.80 dB 3:01 10-La Scandinavie (Scandinavian Suite) (1902) - IV. Mélodie Danoise
DR13 -2.04 dB -21.07 dB 5:44 11-La Scandinavie (Scandinavian Suite) (1902) - V. Air et Finale sur des Danses Norvégiennes
DR11 -13.60 dB -31.73 dB 2:25 12-Sænk kun dit hoved, du blomst, No.4 of Strophic Songs, Op.21/FS42
DR13 -2.29 dB -20.35 dB 9:12 06-Andante con moto in C minor, EG116 (1878)
--------------------------------------------------------------------------------
Number of tracks: 12
Official DR value: DR12
Samplerate: 96000 Hz
Channels: 2
Bits per sample: 24
Bitrate: 2451 kbps
Codec: FLAC
================================================================================

Скриншот спектра частот

Доп. информация

При скачивании, если необходимо, переименуйте папку, в которой будет находиться альбомБольшая просьба к скачавшим поддерживать раздачу! Помогайте другим, ведь вам тоже может понадобиться помощь!Не забываем говорить "Спасибо"!Комментарии приветствуются!
[teatrix.ru].t21677.torrent 
Торрент: Зарегистрирован [ 2016-03-20 12:52 ] · 1C305ADAD02A685C6C872100C2D387305B58A14D

Скачать .torrent

Скачать

13 KB

Статус: проверено
Скачан: 0 раз
Размер: 1.12 GB
terms.php



Быстрый ответ

Имя:

      
Для отправки сообщений необходимо включить JavaScript
Показать сообщения:    

Текущее время: 08-Дек 21:12

Часовой пояс: UTC + 3


Вы можете начинать темы
Вы можете отвечать на сообщения
Вы не можете редактировать свои сообщения
Вы не можете удалять свои сообщения
Вы не можете голосовать в опросах
Вы не можете прикреплять файлы к сообщениям
Вы можете скачивать файлы