Галина Вишневская. Возвращение (Григорий Амнуэль и Борис Яновский) [1992, Документальный фильм, DVB]


Статистика раздачи [Обновить пиров]
Размер:  1.56 GB   |    Зарегистрирован:  8 месяцев 17 дней   |    Скачан:  1 раз

Полного источника не было: 3 месяца 2 дня

 
   
 
 
 

[Цитировать]

Галина Вишневская. Возвращение
Дата/Год выпуска: 1992
Страна: Россия
Жанр: Документальный фильм
Продолжительность: 00:51:30
Перевод: Не требуется
Оригинальная аудиодорожка: нет
Режиссер: Григорий Амнуэль и Борис Яновский
Телеканал: Ностальгия
Описание: Найти интересный биографический фильм, а не просто подборку отдельных фактов из жизни знаменитости, нелегко. Рекомендуем вам посмотреть фильм "Галина Вишневская. Возвращение", если вам хочется еще раз услышать голос этой невероятной певицы и узнать о ее жизни. Очень важно то что, в этом фильме снимается сама Галина Павловна. Ее жизнь была непростой. Великий талант и великое неприятие страной, вплоть до изгнания, непростое возвращение и долгожданное счастье – в этом фильме есть все. История жизни, рассказанная самой певицей, невероятно искренняя в каждом слове. Сложно найти более душевный и честный фильм о ней или с ее участием. Поистине талантливая певица, завоевавшая мировые сцены, в жизни ей приходилось испытывать разное - от огромного счастья до безумной боли. Но она всегда оставалась невероятно доброй и справедливой. Она не держала зла на тех, кто ее изгнал, потому что возвращение без этого не было бы таким ярким. Великолепный фильм! Великолепная Галина Павловна Вишневская!
Доп. информация: Этот видеофайл мне переслал через электронную почту пользователь трекера - luchij83
Сэмпл: https://www.sendspace.com/file/9tulsv
качество: DVB
формат: MPG
Видео: MPEG2, 720:576,(4:3), 4060 Кбит/сек, 25,000 кадров/сек, (0.392 bit/pixel)
Аудио: MP2, 192 Кбит/сек, 48,0 КГц, 2 канала

MediaInfo

Общее
Полное имя : Галина Вишневская. Возвращение.mpg
Формат : MPEG-PS
Размер файла : 1,56 Гбайт
Продолжительность : 51 м.
Режим общего битрейта : Переменный
Общий поток : 4338 Кбит/сек
Видео
Идентификатор : 224 (0xE0)
Формат : MPEG Video
Версия формата : Version 2
Профиль формата : Main@Main
Параметр BVOP формата : Да
Параметр матрицы формата : Выборочная
Параметр GOP формата : M=3, N=36
Структура изображения : Frame
Продолжительность : 51 м.
Вид битрейта : Переменный
Битрейт : 4060 Кбит/сек
Максимальный битрейт : 15,0 Мбит/сек
Ширина : 720 пикселей
Высота : 576 пикселей
Соотношение сторон : 4:3
Частота кадров : 25,000 кадров/сек
Стандарт вещания : PAL
Цветовое пространство : YUV
Субдискретизация насыщенности : 4:2:0
Битовая глубина : 8 бит
Тип развёртки : Чересстрочная
Порядок развёртки : Верхнее поле первое
Метод сжатия : С потерями
Бит/(Пиксели*Кадры) : 0.392
Временной код первого кадра : 00:00:00:00
Оригинал временного кода : Group of pictures header
GOP, открыто/закрыто : Открыто
Размер потока : 1,46 Гбайт (94%)
Аудио
Идентификатор : 192 (0xC0)
Формат : MPEG Audio
Версия формата : Version 1
Профиль формата : Layer 2
Продолжительность : 51 м.
Вид битрейта : Постоянный
Битрейт : 192 Кбит/сек
Каналы : 2 канала
Частота : 48,0 КГц
Метод сжатия : С потерями
Задержка видео : 23 мс.
Размер потока : 70,7 Мбайт (4%)

Скриншоты

[teatrix.ru].t21678.torrent 
Торрент: Зарегистрирован [ 2016-03-20 12:52 ] · 5A041998919E11536F2C232A731D07369BD229E0

Скачать .torrent

Скачать

16 KB

Статус: проверено
Скачан: 1 раз
Размер: 1.56 GB
terms.php



Быстрый ответ

Имя:

      
Для отправки сообщений необходимо включить JavaScript
Показать сообщения:    

Текущее время: 06-Дек 22:48

Часовой пояс: UTC + 3


Вы можете начинать темы
Вы можете отвечать на сообщения
Вы не можете редактировать свои сообщения
Вы не можете удалять свои сообщения
Вы не можете голосовать в опросах
Вы не можете прикреплять файлы к сообщениям
Вы можете скачивать файлы