(Classical / Choral / Cello) Gabriel Faure - Requiem • Elegie • Messe basse (Alain Clement, Philippe Huttenlocher, Michel Corboz; Frederic Lodeon, Armin Jordan; Audite Nova, Jean Sourisse, Marie-Claire Alain) - 1986, FLAC (tracks+.cue) lossless


Статистика раздачи [Обновить пиров]
Размер:  201 MB   |    Зарегистрирован:  8 месяцев 15 дней   |    Скачан:  0 раз

Полного источника не было: Никогда

 
   
 
 
 

[Цитировать]

Gabriel Fauré | Габриэль Форе
(1845–1924)



Requiem | Élégie pour violoncelle et orchestre | Messe basse


Maîtrise Saint-Pierre-aux-Liens de BulleBerner Symphonie-OrchesterMichel Corboz conductor
Frédéric Lodéon celloOrchestre Philharmonique de Monte-CarloArmin Jordan conductor
Ensemble vocal «Audite Nova» (Jean Sourisse chorus master) • Marie-Claire Alain organ


Жанр: Classical / Choral / Cello
Даты записи: 1972, 1982
Формат записи: AAD/DDD?, Stereo
Год издания диска: 1986?
Издатель (лейбл): Erato
Номер по каталогу: ECD 88126
Аудиокодек: FLAC
Тип рипа: tracks+.cue
Битрейт аудио: lossless
Продолжительность: 56:32
Наличие сканов в содержимом раздачи: нет
Источник: What.CD
Релизёр: nibelune

-Tracklist / Треклист
Requiem, Op. 48 - 40:03
Introït et Kyrie - 7:47
  • Offertoire - 8:04
  • Sanctus - 3:57
  • Pie Jesu - 3:19
  • Agnus Dei - 6:13
  • Libera me - 6:17
  • In paradisum - 4:25
    Alain Clément (boy soprano) [4], Philippe Huttenlocher (baritone) [2, 6]
    Maîtrise Saint-Pierre-aux-Liens de Bulle (André Corboz, chorus master)
    Philippe Corboz (organ)
    Berner Symphonie-Orchester
    Michel Corboz, conductor
    Recorded: Kulturcasino Bern, Switzerland, May 1972

    Élégie pour violoncelle et orchestre, Op. 24 - 6:41
    Frédéric Lodéon (cello)
    Orchestre Philharmonique de Monte-Carlo
    Armin Jordan, conductor
    Recorded: Palais des Congrès de Monte Carlo, Monaco, July 1982

    Messe basse pour chœur de femmes et orgue - 9:48
    Kyrie eleison - 2:21
  • Sanctus - 2:14
  • Benedictus - 2:24
  • Agnus Dei - 2:50
    Arlette Steyer (soprano) [9, 11]
    Ensemble vocal «Audite Nova» (Jean Sourisse, chorus master)
    Marie-Claire Alain (organ)
    Recorded: Église Saint-Germain de Saint-Germain-en-Laye, France, December 1982
    -

    EAC log / Отчёт EAC

    Exact Audio Copy V1.0 beta 4 from 7. December 2014
    EAC extraction logfile from 24. March 2015, 23:27
    Gabriel Fauré / Requiem - Elégie - Messe Basse
    Used drive : HL-DT-STRW/DVD GCC-4242N Adapter: 1 ID: 0
    Read mode : Secure
    Utilize accurate stream : Yes
    Defeat audio cache : Yes
    Make use of C2 pointers : No
    Read offset correction : 102
    Overread into Lead-In and Lead-Out : No
    Fill up missing offset samples with silence : Yes
    Delete leading and trailing silent blocks : No
    Null samples used in CRC calculations : Yes
    Used interface : Native Win32 interface for Win NT & 2000
    Gap handling : Appended to previous track
    Used output format : User Defined Encoder
    Selected bitrate : 1024 kBit/s
    Quality : High
    Add ID3 tag : No
    Command line compressor : C:\Program Files\Exact Audio Copy\FLAC\FLAC.EXE
    Additional command line options : -8 -V -T "ARTIST=%artist%" -T "TITLE=%title%" -T "ALBUM=%albumtitle%" -T "DATE=%year%" -T "TRACKNUMBER=%tracknr%" -T "GENRE=%genre%" -T "PERFORMER=%albuminterpret%" -T "COMPOSER=%composer%" %haslyrics%--tag-from-file=LYRICS="%lyricsfile%"%haslyrics% -T "ALBUMARTIST=%albumartist%" -T "DISCNUMBER=%cdnumber%" -T "TOTALDISCS=%totalcds%" -T "TOTALTRACKS=%numtracks%" -T "COMMENT=%comment%" %source% -o %dest%
    TOC of the extracted CD
    Track | Start | Length | Start sector | End sector
    ---------------------------------------------------------
    1 | 0:00.33 | 7:47.00 | 33 | 35057
    2 | 7:47.33 | 8:04.00 | 35058 | 71357
    3 | 15:51.33 | 3:57.25 | 71358 | 89157
    4 | 19:48.58 | 3:19.00 | 89158 | 104082
    5 | 23:07.58 | 6:13.17 | 104083 | 132074
    6 | 29:21.00 | 6:17.33 | 132075 | 160382
    7 | 35:38.33 | 4:25.12 | 160383 | 180269
    8 | 40:03.45 | 6:41.00 | 180270 | 210344
    9 | 46:44.45 | 2:21.33 | 210345 | 220952
    10 | 49:06.03 | 2:13.42 | 220953 | 230969
    11 | 51:19.45 | 2:23.50 | 230970 | 241744
    12 | 53:43.20 | 2:49.38 | 241745 | 254457
    Track 1
    Filename C:\EAC\01 - Requiem, Pour Soprano, Baryton, Choeur Et Orchestre Op.48 Introït & Kyrie.wav
    Pre-gap length 0:00:02.44
    Peak level 100.0 %
    Extraction speed 1.4 X
    Track quality 100.0 %
    Test CRC 786DA38A
    Copy CRC 786DA38A
    Accurately ripped (confidence 9) [0A82D921] (AR v2)
    Copy OK
    Track 2
    Filename C:\EAC\02 - Requiem, Pour Soprano, Baryton, Choeur Et Orchestre Op.48 Offertoire.wav
    Pre-gap length 0:00:00.50
    Peak level 52.9 %
    Extraction speed 1.7 X
    Track quality 100.0 %
    Test CRC 03E6C371
    Copy CRC 03E6C371
    Accurately ripped (confidence 9) [15FDF86A] (AR v2)
    Copy OK
    Track 3
    Filename C:\EAC\03 - Requiem, Pour Soprano, Baryton, Choeur Et Orchestre Op.48 Sanctus.wav
    Pre-gap length 0:00:02.60
    Peak level 75.4 %
    Extraction speed 1.7 X
    Track quality 100.0 %
    Test CRC DAA71FD7
    Copy CRC DAA71FD7
    Accurately ripped (confidence 9) [AEFC36E1] (AR v2)
    Copy OK
    Track 4
    Filename C:\EAC\04 - Requiem, Pour Soprano, Baryton, Choeur Et Orchestre Op.48 Pie Jesu.wav
    Pre-gap length 0:00:01.66
    Peak level 27.5 %
    Extraction speed 1.8 X
    Track quality 100.0 %
    Test CRC BA3DBF94
    Copy CRC BA3DBF94
    Accurately ripped (confidence 9) [46C6F04C] (AR v2)
    Copy OK
    Track 5
    Filename C:\EAC\05 - Requiem, Pour Soprano, Baryton, Choeur Et Orchestre Op.48 Agnus Dei.wav
    Pre-gap length 0:00:01.97
    Peak level 88.6 %
    Extraction speed 2.0 X
    Track quality 100.0 %
    Test CRC 9F5484EA
    Copy CRC 9F5484EA
    Accurately ripped (confidence 9) [D235ABE5] (AR v2)
    Copy OK
    Track 6
    Filename C:\EAC\06 - Requiem, Pour Soprano, Baryton, Choeur Et Orchestre Op.48 Libera Me.wav
    Pre-gap length 0:00:00.60
    Peak level 83.4 %
    Extraction speed 2.1 X
    Track quality 100.0 %
    Test CRC 582C4BDC
    Copy CRC 582C4BDC
    Accurately ripped (confidence 9) [B187DC24] (AR v2)
    Copy OK
    Track 7
    Filename C:\EAC\07 - Requiem, Pour Soprano, Baryton, Choeur Et Orchestre Op.48 In Paradisum.wav
    Pre-gap length 0:00:01.24
    Peak level 51.4 %
    Extraction speed 2.2 X
    Track quality 100.0 %
    Test CRC FAD445D1
    Copy CRC FAD445D1
    Accurately ripped (confidence 9) [D3420D1B] (AR v2)
    Copy OK
    Track 8
    Filename C:\EAC\08 - Élégie Pour Violoncelle Et Orchestre, Op.24.wav
    Pre-gap length 0:00:09.09
    Peak level 44.3 %
    Extraction speed 2.4 X
    Track quality 100.0 %
    Test CRC 9BB0C267
    Copy CRC 9BB0C267
    Accurately ripped (confidence 9) [0B623516] (AR v2)
    Copy OK
    Track 9
    Filename C:\EAC\09 - Messe Basse, Pour Chœur De Femmes Et Harmonium Messe Des Pêcheurs De Villerville Kyrie.wav
    Pre-gap length 0:00:07.00
    Peak level 76.8 %
    Extraction speed 1.7 X
    Track quality 99.9 %
    Test CRC B529B111
    Copy CRC B529B111
    Accurately ripped (confidence 9) [B120CCFB] (AR v2)
    Copy OK
    Track 10
    Filename C:\EAC\10 - Messe Basse, Pour Chœur De Femmes Et Harmonium Messe Des Pêcheurs De Villerville Sanctus.wav
    Pre-gap length 0:00:00.61
    Peak level 89.7 %
    Extraction speed 2.1 X
    Track quality 100.0 %
    Test CRC EC5A3EC5
    Copy CRC EC5A3EC5
    Accurately ripped (confidence 9) [6FFED07D] (AR v2)
    Copy OK
    Track 11
    Filename C:\EAC\11 - Messe Basse, Pour Chœur De Femmes Et Harmonium Messe Des Pêcheurs De Villerville Benedictus.wav
    Pre-gap length 0:00:01.56
    Peak level 54.8 %
    Extraction speed 2.2 X
    Track quality 100.0 %
    Test CRC A6B50656
    Copy CRC A6B50656
    Accurately ripped (confidence 9) [AD259359] (AR v2)
    Copy OK
    Track 12
    Filename C:\EAC\12 - Messe Basse, Pour Chœur De Femmes Et Harmonium Messe Des Pêcheurs De Villerville Agnus Dei.wav
    Pre-gap length 0:00:02.86
    Peak level 44.2 %
    Extraction speed 2.3 X
    Track quality 100.0 %
    Test CRC A346C4E1
    Copy CRC A346C4E1
    Accurately ripped (confidence 9) [E003E03E] (AR v2)
    Copy OK
    All tracks accurately ripped
    No errors occurred
    End of status report
    ---- CUETools DB Plugin V2.1.4
    [CTDB TOCID: DzvDz2NXRpoKfnKh2JsENSo9jQs-] database access error: Le délai d'attente de l'opération a expiré.
    ==== Log checksum A1C6F299E7C44D3F6802EBADA28FE331FA47E5E6094451EFE5D89AF9D81BF251 ====

    auCDtect Task Manager log / Отчёт auCDtect Task Manager

    -----------------------
    DON'T MODIFY THIS FILE
    -----------------------
    PERFORMER: auCDtect Task Manager, ver. 1.5.1RC3 build 1.5.1.4
    Copyright (c) 2008-2010 y-soft. All rights reserved
    ANALYZER: auCDtect: CD records authenticity detector, version 0.8.2
    Copyright (c) 2004 Oleg Berngardt. All rights reserved.
    Copyright (c) 2004 Alexander Djourik. All rights reserved.
    FILE: 08 - Elegie pour violoncelle et orchestre, Op. 24.flac
    Size: 23785252 Hash: CBC094594EB0540299331F499B4CEA4D Accuracy: -m0
    Conclusion: CDDA 100%
    Signature: EE56A67AF77E0D9E73EEDA243DF48943EE082FE2
    FILE: 07 - Requiem, Op. 48 - In paradisum.flac
    Size: 14849298 Hash: 8DDE5AC5AC08A7101AED494364EB3E77 Accuracy: -m0
    Conclusion: CDDA 100%
    Signature: 024549CFDC1852FEA7756638C2669E6C60C12B63
    FILE: 06 - Requiem, Op. 48 - Libera me.flac
    Size: 24331384 Hash: F55F05C8B27F50F9D288CD6800E4AAFD Accuracy: -m0
    Conclusion: CDDA 100%
    Signature: 5671655057BE3F366A263C17B55B7E218C12C345
    FILE: 05 - Requiem, Op. 48 - Agnus Dei.flac
    Size: 25116570 Hash: F8616E1B6F1F46570AF1DAACF96A1FE6 Accuracy: -m0
    Conclusion: CDDA 100%
    Signature: 90ED520AA98D5D4F3732AB32EEFB56FCE7646BF6
    FILE: 04 - Requiem, Op. 48 - Pie Jesu.flac
    Size: 10775919 Hash: B8708295CBF9E2AD01A98187B907A5DC Accuracy: -m0
    Conclusion: CDDA 100%
    Signature: A62CE5EB22D40E384E006ECFA3C18A4E51041130
    FILE: 03 - Requiem, Op. 48 - Sanctus.flac
    Size: 15686559 Hash: 05B815454E5EE41AAB4C3968059249A0 Accuracy: -m0
    Conclusion: CDDA 100%
    Signature: 2D24446EA7D5EF5B7725E890F6464755604DC5A2
    FILE: 02 - Requiem, Op. 48 - Offertoire.flac
    Size: 28827121 Hash: 35FFD128CFE90BB4FF0FC93F3D1B56EF Accuracy: -m0
    Conclusion: CDDA 100%
    Signature: 1CBB8F6ED7452ACFC0D52D4DD0B886D691EA8421
    FILE: 01 - Requiem, Op. 48 - Introit et Kyrie.flac
    Size: 30476564 Hash: 164B0526D52FE400F9451D2697598D62 Accuracy: -m0
    Conclusion: CDDA 99%
    Signature: D030166ECEE14BECA7F7C914951C5D11ECFC361D
    FILE: 12 - Messe basse pour choeur de femmes et orgue - Agnus Dei.flac
    Size: 9867852 Hash: B3780306D297A4372D0B4B0B251AFD6B Accuracy: -m0
    Conclusion: CDDA 100%
    Signature: 9B3FB463FE2363CA6A9973DE90D619D6F07CC43D
    FILE: 11 - Messe basse pour choeur de femmes et orgue - Benedictus.flac
    Size: 8821981 Hash: A37675C46ECE44FB1CBA5C1DE3344595 Accuracy: -m0
    Conclusion: CDDA 100%
    Signature: 3E575E5A09AA1957EF68C2BB40F7D6A420861817
    FILE: 10 - Messe basse pour choeur de femmes et orgue - Sanctus.flac
    Size: 8808612 Hash: 492ADF40C89582E0455E2F5DEF34E894 Accuracy: -m0
    Conclusion: CDDA 100%
    Signature: 2DABA584374913ED1844B7E245CAA087E7135B7A
    FILE: 09 - Messe basse pour choeur de femmes et orgue - Kyrie eleison.flac
    Size: 9100273 Hash: EAB00478835B9B9F7B64D339836E00C5 Accuracy: -m0
    Conclusion: CDDA 100%
    Signature: 5019E3E4FB0C2D407EF6F736994C99B14B00C88F

    CUETools log / Отчёт CUETools

    [CUETools log; Date: 07.07.2015 23:49:14; Version: 2.1.4]
    Pregap length 00:00:33.
    [AccurateRip ID: 001d7689-01090e88-a80d400c] found.
    Track [ CRC | V2 ] Status
    01 [88ca5a40|0a82d921] (09+09/18) Accurately ripped
    02 [064fc1f6|15fdf86a] (08+09/17) Accurately ripped
    03 [b5cae344|aefc36e1] (09+09/18) Accurately ripped
    04 [924e6e9a|46c6f04c] (09+09/18) Accurately ripped
    05 [d59b6708|d235abe5] (08+09/17) Accurately ripped
    06 [922227d7|b187dc24] (09+09/18) Accurately ripped
    07 [6afd1cf6|d3420d1b] (09+09/18) Accurately ripped
    08 [ce1ce448|0b623516] (09+09/18) Accurately ripped
    09 [5e370368|b120ccfb] (09+09/18) Accurately ripped
    10 [9e7a5238|6ffed07d] (09+09/18) Accurately ripped
    11 [5ff31879|ad259359] (08+09/17) Accurately ripped
    12 [206696b8|e003e03e] (09+09/18) Accurately ripped
    Track Peak [ CRC32 ] [W/O NULL] [ LOG ]
    -- 100,0 [A501DFE6] [67C05A3D]
    01 100,0 [786DA38A] [2F061ADC] CRC32
    02 52,9 [03E6C371] [34CFE556] CRC32
    03 75,4 [DAA71FD7] [2F15684D] CRC32
    04 27,5 [BA3DBF94] [E6E2AE9F] CRC32
    05 88,6 [9F5484EA] [6625BD49] CRC32
    06 83,4 [582C4BDC] [5EF038B8] CRC32
    07 51,4 [FAD445D1] [6DBCA4AF] CRC32
    08 44,3 [9BB0C267] [D7B34B24] CRC32
    09 76,8 [B529B111] [0D7C229F] CRC32
    10 89,7 [EC5A3EC5] [2D7DE86B] CRC32
    11 54,8 [A6B50656] [F80025FC] CRC32
    12 44,2 [A346C4E1] [6456EDF7] CRC32

    CUE sheet

    TITLE "Gabriel Fauré: Requiem • Élégie • Messe basse"
    PERFORMER "Various"
    REM GENRE Classical
    REM DISCID A80D400C
    REM COMMENT "ExactAudioCopy v1.0b4"
    CATALOG 0000000000000
    FILE "01 - Requiem, Op. 48 - Introit et Kyrie.flac" WAVE
    TRACK 01 AUDIO
    TITLE "Requiem, Op. 48: Introït et Kyrie"
    PERFORMER "Maîtrise Saint-Pierre-aux-Liens de Bulle, Berner Symphonie-Orchester & Michel Corboz"
    REM DATE 1972
    PREGAP 00:00:33
    INDEX 01 00:00:00
    TRACK 02 AUDIO
    TITLE "Requiem, Op. 48: Offertoire"
    PERFORMER "Philippe Huttenlocher, Maîtrise Saint-Pierre-aux-Liens de Bulle, Berner Symphonie-Orchester & Michel Corboz"
    REM DATE 1972
    INDEX 00 07:46:37
    FILE "02 - Requiem, Op. 48 - Offertoire.flac" WAVE
    INDEX 01 00:00:00
    TRACK 03 AUDIO
    TITLE "Requiem, Op. 48: Sanctus"
    PERFORMER "Maîtrise Saint-Pierre-aux-Liens de Bulle, Berner Symphonie-Orchester & Michel Corboz"
    REM DATE 1972
    INDEX 00 08:01:30
    FILE "03 - Requiem, Op. 48 - Sanctus.flac" WAVE
    INDEX 01 00:00:00
    TRACK 04 AUDIO
    TITLE "Requiem, Op. 48: Pie Jesu"
    PERFORMER "Alain Clément, Maîtrise Saint-Pierre-aux-Liens de Bulle, Berner Symphonie-Orchester & Michel Corboz"
    REM DATE 1972
    INDEX 00 03:55:50
    FILE "04 - Requiem, Op. 48 - Pie Jesu.flac" WAVE
    INDEX 01 00:00:00
    TRACK 05 AUDIO
    TITLE "Requiem, Op. 48: Agnus Dei"
    PERFORMER "Maîtrise Saint-Pierre-aux-Liens de Bulle, Berner Symphonie-Orchester & Michel Corboz"
    REM DATE 1972
    INDEX 00 03:17:02
    FILE "05 - Requiem, Op. 48 - Agnus Dei.flac" WAVE
    INDEX 01 00:00:00
    TRACK 06 AUDIO
    TITLE "Requiem, Op. 48: Libera me"
    PERFORMER "Philippe Huttenlocher, Maîtrise Saint-Pierre-aux-Liens de Bulle, Berner Symphonie-Orchester & Michel Corboz"
    REM DATE 1972
    INDEX 00 06:12:47
    FILE "06 - Requiem, Op. 48 - Libera me.flac" WAVE
    INDEX 01 00:00:00
    TRACK 07 AUDIO
    TITLE "Requiem, Op. 48: In paradisum"
    PERFORMER "Maîtrise Saint-Pierre-aux-Liens de Bulle, Berner Symphonie-Orchester & Michel Corboz"
    REM DATE 1972
    INDEX 00 06:16:15
    FILE "07 - Requiem, Op. 48 - In paradisum.flac" WAVE
    INDEX 01 00:00:00
    TRACK 08 AUDIO
    TITLE "Élégie pour violoncelle et orchestre, Op. 24"
    PERFORMER "Frédéric Lodéon (cello), Orchestre Philharmonique de Monte-Carlo. Armin Jordan, conductor"
    REM DATE 1982
    INDEX 00 04:16:05
    FILE "08 - Elegie pour violoncelle et orchestre, Op. 24.flac" WAVE
    INDEX 01 00:00:00
    TRACK 09 AUDIO
    TITLE "Messe basse pour chœur de femmes et orgue: Kyrie eleison"
    PERFORMER "Arlette Steyer (soprano), «Audite Nova» (Jean Sourisse, chorus master), Marie-Claire Alain (organ)"
    REM DATE 1982
    INDEX 00 06:34:00
    FILE "09 - Messe basse pour choeur de femmes et orgue - Kyrie eleison.flac" WAVE
    INDEX 01 00:00:00
    TRACK 10 AUDIO
    TITLE "Messe basse pour chœur de femmes et orgue: Sanctus"
    PERFORMER "«Audite Nova» (Jean Sourisse, chorus master), Marie-Claire Alain (organ)"
    REM DATE 1982
    INDEX 00 02:20:62
    FILE "10 - Messe basse pour choeur de femmes et orgue - Sanctus.flac" WAVE
    INDEX 01 00:00:00
    TRACK 11 AUDIO
    TITLE "Messe basse pour chœur de femmes et orgue: Benedictus"
    PERFORMER "Arlette Steyer (soprano), «Audite Nova» (Jean Sourisse, chorus master), Marie-Claire Alain (organ)"
    REM DATE 1982
    INDEX 00 02:12:00
    FILE "11 - Messe basse pour choeur de femmes et orgue - Benedictus.flac" WAVE
    INDEX 01 00:00:00
    TRACK 12 AUDIO
    TITLE "Messe basse pour chœur de femmes et orgue: Agnus Dei"
    PERFORMER "«Audite Nova» (Jean Sourisse, chorus master), Marie-Claire Alain (organ)"
    REM DATE 1982
    INDEX 00 02:20:60
    FILE "12 - Messe basse pour choeur de femmes et orgue - Agnus Dei.flac" WAVE
    INDEX 01 00:00:00
    [teatrix.ru].t21680.torrent 
    Торрент: Зарегистрирован [ 2016-03-20 12:51 ] · 95A1DDE162260297C4D002E694D3DF484058700F

    Скачать .torrent

    Скачать

    18 KB

    Статус: проверено
    Скачан: 0 раз
    Размер: 201 MB
    terms.php



  • Быстрый ответ

    Имя:

          
    Для отправки сообщений необходимо включить JavaScript
    Показать сообщения:    

    Текущее время: 04-Дек 23:21

    Часовой пояс: UTC + 3


    Вы можете начинать темы
    Вы можете отвечать на сообщения
    Вы не можете редактировать свои сообщения
    Вы не можете удалять свои сообщения
    Вы не можете голосовать в опросах
    Вы не можете прикреплять файлы к сообщениям
    Вы можете скачивать файлы