(Baroque sacred) Cavalli - Requiem & Antiennes a la Vierge (Akademia, Francoise Lasserre) - 1993, FLAC (image+.cue) lossless


Статистика раздачи [Обновить пиров]
Размер:  260 MB   |    Зарегистрирован:  8 месяцев 20 дней   |    Скачан:  0 раз

Полного источника не было: Никогда

 
   
 
 
 

[Цитировать]

Requiem & Musiche sacre (Antiennes à la Vierge)

Жанр: Baroque sacred
Страна-производитель диска: Made in France
Год издания диска: 1993
Издатель (лейбл): PIERRE VERANY
Номер по каталогу: PV793052
Дата записи: 1993
Аудиокодек: FLAC
Тип рипа: image+.cue
Битрейт аудио: lossless
Продолжительность: 51'10
Источник: релизер
сайт-источник/ник/другое: curumo
Наличие сканов в содержимом раздачи: да
Треклист:

скрытый текст

1 Requiem, missa pro defunctis per octo vocibus: Requiem aeternam 4:20
2 Kyrie eleison 3:03
3 Dies irae 13:41
4 Offertorium 3:58
5 Sanctus 2:27
6 Agnus dei 3:18
7 Musiche sacre, Antienne à la vierge: Ave regina caelorum 5:08
8 Regina coeli laetare 3:54
9 Salve regina 6:15
10 Alma redemptoris mater 5:01
Исполнители:

скрытый текст

Pier Francesco Cavalli
Requiem & Musiche sacre (Antiennes à la Vierge)
AKADEMIA (Ensemble Vocal Regional de Champagne Ardenne)
Francoise Lasserre, руководитель
Солисты:
Catherine Greuillet, Rebeca Ockenden (sopran)
Thierry Gregoire, Benoit Thivel (alti)
Jean-Luc Baudoin, Bruno Boterf, Edmond Hurtrait (tenors)
Vincent Bouchot, Jean-Claude Serragosse (basses)
Laurent Stewart, Etienne Baillot, Claire Antonini,
Pascale Bouquet, Anne-Marie Lasla, Sylvie Mocquet,
Jean-Pascal Bertin (continuo)
Original Release Date: May 15, 1993

Лог создания рипа

Exact Audio Copy V1.0 beta 3 from 29. August 2011
EAC extraction logfile from 20. February 2014, 9:16
Pier Francesco Cavalli / Requiem & Musiche sacre ( Antiennes à la Vierge)
Used drive : HL-DT-STDVD-RAM GH22LS30 Adapter: 2 ID: 0
Read mode : Secure
Utilize accurate stream : Yes
Defeat audio cache : Yes
Make use of C2 pointers : No
Read offset correction : 102
Overread into Lead-In and Lead-Out : No
Fill up missing offset samples with silence : Yes
Delete leading and trailing silent blocks : No
Null samples used in CRC calculations : Yes
Used interface : Native Win32 interface for Win NT & 2000
Used output format : User Defined Encoder
Selected bitrate : 768 kBit/s
Quality : High
Add ID3 tag : No
Command line compressor : C:\Program Files (x86)\FLAC\flac.exe
Additional command line options : -T "artist=%artist%" -T "title=%title%" -T "album=%albumtitle%" -T "date=%year%" -T "tracknumber=%tracknr%" -T "genre=%genre%" -5 %source%
TOC of the extracted CD
Track | Start | Length | Start sector | End sector
---------------------------------------------------------
1 | 0:00.33 | 4:21.07 | 33 | 19614
2 | 4:21.40 | 3:03.03 | 19615 | 33342
3 | 7:24.43 | 13:41.12 | 33343 | 94929
4 | 21:05.55 | 3:58.40 | 94930 | 112819
5 | 25:04.20 | 2:27.35 | 112820 | 123879
6 | 27:31.55 | 3:18.15 | 123880 | 138744
7 | 30:49.70 | 5:08.45 | 138745 | 161889
8 | 35:58.40 | 3:54.55 | 161890 | 179494
9 | 39:53.20 | 6:15.43 | 179495 | 207662
10 | 46:08.63 | 5:01.47 | 207663 | 230284
Range status and errors
Selected range
Filename G:\1.RIP\064. Cavallii - Requiem & Musiche sacre.SA.IC-GoogleDrive\upload\Pier Francesco Cavalli - Requiem & Musiche sacre ( Antiennes à la Vierge).wav
Peak level 100.0 %
Extraction speed 2.6 X
Range quality 100.0 %
Copy CRC E3CF1107
Copy OK
No errors occurred
AccurateRip summary
Track 1 accurately ripped (confidence 3) [C99FC280] (AR v2)
Track 2 accurately ripped (confidence 3) [D2242603] (AR v2)
Track 3 accurately ripped (confidence 3) [44B16700] (AR v2)
Track 4 accurately ripped (confidence 3) [28F85D87] (AR v2)
Track 5 accurately ripped (confidence 3) [C32CB8F2] (AR v2)
Track 6 accurately ripped (confidence 3) [98C33E3E] (AR v2)
Track 7 accurately ripped (confidence 3) [59A24208] (AR v2)
Track 8 accurately ripped (confidence 3) [75F21455] (AR v2)
Track 9 accurately ripped (confidence 3) [C50AE174] (AR v2)
Track 10 accurately ripped (confidence 3) [61DE54BA] (AR v2)
All tracks accurately ripped
End of status report

Содержание индексной карты (.CUE)

REM GENRE Religieux
REM DATE 1993
REM DISCID 810BFE0A
REM COMMENT "ExactAudioCopy v1.0b3"
PERFORMER "Pier Francesco Cavalli"
TITLE "Requiem & Musiche sacre ( Antiennes a la Vierge)"
FILE "Pier Francesco Cavalli - Requiem & Musiche sacre ( Antiennes a la Vierge).flac" WAVE
TRACK 01 AUDIO
TITLE "I. Requiem aeternam"
PERFORMER "Pier Francesco Cavalli"
INDEX 00 00:00:00
INDEX 01 00:00:33
TRACK 02 AUDIO
TITLE "II. Kyrie eleison"
PERFORMER "Pier Francesco Cavalli"
INDEX 00 04:19:08
INDEX 01 04:21:40
TRACK 03 AUDIO
TITLE "III. Dies irae"
PERFORMER "Pier Francesco Cavalli"
INDEX 00 07:22:53
INDEX 01 07:24:43
TRACK 04 AUDIO
TITLE "IV. Offertorium"
PERFORMER "Pier Francesco Cavalli"
INDEX 00 21:02:40
INDEX 01 21:05:55
TRACK 05 AUDIO
TITLE "V. Sanctus"
PERFORMER "Pier Francesco Cavalli"
INDEX 00 24:59:50
INDEX 01 25:04:20
TRACK 06 AUDIO
TITLE "VI. Agnus Dei"
PERFORMER "Pier Francesco Cavalli"
INDEX 00 27:27:53
INDEX 01 27:31:55
TRACK 07 AUDIO
TITLE "I. Ave Regina caelorum a 2 voci ( tenore & basso)"
PERFORMER "Pier Francesco Cavalli"
INDEX 00 30:38:15
INDEX 01 30:49:70
TRACK 08 AUDIO
TITLE "II. Regina caeli laetare a 3 voci ( alto, tenore & basso)"
PERFORMER "Pier Francesco Cavalli"
INDEX 00 35:53:03
INDEX 01 35:58:40
TRACK 09 AUDIO
TITLE "III. Salve Regina a 4 voci ( alto, due tenori & basso)"
PERFORMER "Pier Francesco Cavalli"
INDEX 00 39:47:25
INDEX 01 39:53:20
TRACK 10 AUDIO
TITLE "IV. Alma Redemptoris Mater a 5 voci ( due Canti, alto, tenore & basso)"
PERFORMER "Pier Francesco Cavalli"
INDEX 00 46:02:53
INDEX 01 46:08:63
[teatrix.ru].t21681.torrent 
Торрент: Зарегистрирован [ 2016-03-20 12:51 ] · 41B59A2B5100FDD66F62CDAE447A939181F96A02

Скачать .torrent

Скачать

11 KB

Статус: проверено
Скачан: 0 раз
Размер: 260 MB
terms.php



Быстрый ответ

Имя:

      
Для отправки сообщений необходимо включить JavaScript
Показать сообщения:    

Текущее время: 10-Дек 11:58

Часовой пояс: UTC + 3


Вы можете начинать темы
Вы можете отвечать на сообщения
Вы не можете редактировать свои сообщения
Вы не можете удалять свои сообщения
Вы не можете голосовать в опросах
Вы не можете прикреплять файлы к сообщениям
Вы можете скачивать файлы