(Classical, period) Воржишек – Месса, градуал и два оффертория; Томашек – Месса Es-dur, op. 46 / Vorisek & Tomasek – Masses, gradual & offertories (Musica Florea; Marek Stryncl) - 2010, FLAC (image+.cue) lossless


Статистика раздачи [Обновить пиров]
Размер:  417 MB   |    Зарегистрирован:  8 месяцев 14 дней   |    Скачан:  0 раз

Полного источника не было: Никогда

 
   
 
 
 

[Цитировать]

Воржишек – Месса, градуал и два оффертория; Томашек – Месса Es-dur, op. 46 / Voříšek & Tomášek – Masses (Musica Florea; Marek Štryncl)
Жанр: Classical, period
Страна-производитель диска: Чехия
Год издания диска: 2010
Издатель (лейбл): Supraphon
Номер по каталогу: SU 4022-2
Дата записи: 1 и 5 октября 2009 г., Прага.
Аудиокодек: FLAC
Тип рипа: image+.cue
Битрейт аудио: lossless
Продолжительность: 01:15:39
Источник: odeonmusic
Наличие сканов в содержимом раздачи: да
Треклист:-Ян Вацлав Гуго Воржишек (1791 — 1825).
01 — 08. Торжественная месса B-dur для солистов (SATB), хора (SATB) и оркестра, [op. 24] (1824 — 1825).
03. Benedictus es (Дан. 3:55, 56), градуал F-dur (1824).
05. Mentis oppressae, офферторий g-moll (1824).
09. Quoniam iniquitatem cognosco (1: Пс. 50:5; 4: Пс. 38:14), офферторий c-moll (1824/1825?).
Вацлав Ян Крштитель Томашек (1774 — 1850).
10 —16. Месса Es-dur с градуалом и офферторием для солистов (SATB), хора (SATB) и оркестра, op. 46 (1813).

Подробный треклист

Ян Вацлав Гуго Воржишек (1791 — 1825).
Полное собрание духовных сочинений.- Торжественная месса B-dur для солистов (SATB), хора (SATB) и оркестра, [op. 24] (1824 — 1825).
I. Kyrie.
01. Kyrie eleison [03:05].
II. Gloria.
02. Gloria in excelsis. —
(03.) Qui tollis. —
(04.) Quoniam tu solus [06:40].
III. Credo.
04. Credo in unum Deum. —
(07.) Et incarnatus est. —
(08.) Et resurrexit [07:59].
IV. Sanctus.
06. Sanctus [01:08].
V. Benedictus.
07. Benedictus [02:27].
VI. Agnus Dei.
08. Agnus Dei. —
(13.) Dona nobis [04:23].
Малые сочинения (для хора SATB с оркестром).
03. Benedictus es (Дан. 3:55, 56), градуал F-dur (1824) [01:59].
05. Mentis oppressae, офферторий g-moll (1824) [03:17].
09. Quoniam iniquitatem cognosco (1: Пс. 50:5; 4: Пс. 38:14), офферторий c-moll (1824/1825?) [04:15].-Вацлав Ян Крштитель Томашек (1774 — 1850).-Месса Es-dur с градуалом и офферторием для солистов (SATB), хора (SATB) и оркестра, op. 46 (1813).
I. Kyrie.
10. Kyrie eleison [03:52].
II. Gloria.
11. Gloria in excelsis. —
(17.) Qui tollis. —
(18.) Quoniam tu solus [06:21].
III. Graduale.
12. Domine Dominus noster (Пс. 8:2) [06:01].
IV. Credo.
13. Credo in unum Deum. —
(21.) Et incarnatus est. —
(22.) Et resurrexit. —
(23.) Et vitam venturi [08:14].
V. Offertorium.
14. Sperent in Te (Пс. 9:11). —
(25.) Psallite Domino (Пс. 9:12, 9:13) [04:14].
VI. Sanctus.
15. Sanctus. —
(27.) Benedictus [06:26].
VII. Agnus Dei.
16. Agnus Dei [04:58].
-Исполнители:
Musica Florea (на инструментах эпохи).
Солисты:
Barbora Sojková (сопрано: 4, 7, 10, 12, 14, 16),
Marta Fadljevičová (сопрано: 1, 11, 13, 15),
Sylva Čmugrová (контральто: 1, 7, 11, 13, 15),
Daniela Tomaštíková (контральто: 10, 12, 16),
Jaroslav Březina (тенор: 1, 2, 7, 8, 11, 13, 15),
Hasan el Dunia (тенор: 4, 10, 12, 16),
Matúš Trávniček (бас: 1, 8, 11, 13, 15),
Marián Krejčík (бас: 2, 7, 10, 12, 16).
Дирижер Marek Štryncl.-

Лог создания рипа

Exact Audio Copy V1.0 beta 3 from 29. August 2011
EAC extraction logfile from 9. April 2012, 19:46
Marek Štryncl / J.V. Vorísek - Missa solemnis; V.J. Tomásek - Messa - Štryncl
Used drive : HL-DT-STDVDRAM GSA-H10A Adapter: 0 ID: 0
Read mode : Secure
Utilize accurate stream : Yes
Defeat audio cache : Yes
Make use of C2 pointers : No
Read offset correction : 667
Overread into Lead-In and Lead-Out : No
Fill up missing offset samples with silence : Yes
Delete leading and trailing silent blocks : No
Null samples used in CRC calculations : Yes
Used interface : Native Win32 interface for Win NT & 2000
Used output format : User Defined Encoder
Selected bitrate : 1024 kBit/s
Quality : High
Add ID3 tag : No
Command line compressor : C:\Program Files\Exact Audio Copy\Flac\flac.exe
Additional command line options : -8 -V -T "TITLE=%title%" -T "ARTIST=%artist%" -T "ALBUMARTIST=%albumartist%" -T "ALBUM=%albumtitle%" -T "DATE=%year%" -T "TRACKNUMBER=%tracknr%" -T "TRACKTOTAL=%numtracks%" -T "GENRE=%genre%" -T "COMMENT=%comment%" -T "PERFORMER=%albuminterpret%" -T "COMPOSER=%composer%" %source% -o %dest%
TOC of the extracted CD
Track | Start | Length | Start sector | End sector
---------------------------------------------------------
1 | 0:00.00 | 3:05.66 | 0 | 13940
2 | 3:05.66 | 6:41.06 | 13941 | 44021
3 | 9:46.72 | 1:59.04 | 44022 | 52950
4 | 11:46.01 | 7:59.21 | 52951 | 88896
5 | 19:45.22 | 3:17.70 | 88897 | 103741
6 | 23:03.17 | 1:09.04 | 103742 | 108920
7 | 24:12.21 | 2:26.35 | 108921 | 119905
8 | 26:38.56 | 4:22.73 | 119906 | 139628
9 | 31:01.54 | 4:26.24 | 139629 | 159602
10 | 35:28.03 | 3:51.66 | 159603 | 176993
11 | 39:19.69 | 6:21.19 | 176994 | 205587
12 | 45:41.13 | 6:01.30 | 205588 | 232692
13 | 51:42.43 | 8:14.32 | 232693 | 269774
14 | 59:57.00 | 4:14.73 | 269775 | 288897
15 | 64:11.73 | 6:26.34 | 288898 | 317881
16 | 70:38.32 | 4:58.54 | 317882 | 340285
Range status and errors
Selected range
Filename F:\Ripped general\[9899] J.V. Vorísek - Missa solemnis; V.J. Tomásek - Messa - Štryncl\J.V. Vorísek - Missa solemnis; V.J. Tomásek - Messa - Štryncl.wav
Peak level 96.9 %
Extraction speed 7.6 X
Range quality 99.9 %
Test CRC 581D7866
Copy CRC 581D7866
Copy OK
No errors occurred
AccurateRip summary
Track 1 not present in database
Track 2 not present in database
Track 3 not present in database
Track 4 not present in database
Track 5 not present in database
Track 6 not present in database
Track 7 not present in database
Track 8 not present in database
Track 9 not present in database
Track 10 not present in database
Track 11 not present in database
Track 12 not present in database
Track 13 not present in database
Track 14 not present in database
Track 15 not present in database
Track 16 not present in database
None of the tracks are present in the AccurateRip database
End of status report

Содержание индексной карты (.CUE)

REM GENRE Classical
REM DATE 2010
REM DISCID E011B910
REM COMMENT "ExactAudioCopy v1.0b3"
PERFORMER "Marek Stryncl"
TITLE "Vorisek & Tomasek – Masses – Marek Stryncl"
FILE "Vorisek & Tomasek – Masses – Marek Stryncl.flac" WAVE
TRACK 01 AUDIO
TITLE "Vorisek - Mass in B flat major - I. Kyrie"
PERFORMER "Marek Stryncl"
INDEX 01 00:00:00
TRACK 02 AUDIO
TITLE "Vorisek - Mass in B flat major - II. Gloria"
PERFORMER "Marek Stryncl"
INDEX 01 03:05:66
TRACK 03 AUDIO
TITLE "Vorisek - Graduale 'Benedictus es, Domine'"
PERFORMER "Marek Stryncl"
INDEX 01 09:46:72
TRACK 04 AUDIO
TITLE "Vorisek - Mass in B flat major - III. Credo"
PERFORMER "Marek Stryncl"
INDEX 01 11:46:01
TRACK 05 AUDIO
TITLE "Vorisek - Offertorium 'Mentis oppressae'"
PERFORMER "Marek Stryncl"
INDEX 01 19:45:22
TRACK 06 AUDIO
TITLE "Vorisek - Mass in B flat major - IV. Sanctus"
PERFORMER "Marek Stryncl"
INDEX 01 23:03:17
TRACK 07 AUDIO
TITLE "Vorisek - Mass in B flat major - V. Benedictus"
PERFORMER "Marek Stryncl"
INDEX 01 24:12:21
TRACK 08 AUDIO
TITLE "Vorisek - Mass in B flat major - VI. Agnus Dei"
PERFORMER "Marek Stryncl"
INDEX 01 26:38:56
TRACK 09 AUDIO
TITLE "Vorisek - Offertorium 'Quoniam iniquitatem cognosco'"
PERFORMER "Marek Stryncl"
INDEX 01 31:01:54
TRACK 10 AUDIO
TITLE "Tomasek - Messa con graduale et offertorio, Op. 46 - I. Kyrie"
PERFORMER "Marek Stryncl"
INDEX 00 35:18:03
INDEX 01 35:28:03
TRACK 11 AUDIO
TITLE "Tomasek - Messa con graduale et offertorio, Op. 46 - II. Gloria"
PERFORMER "Marek Stryncl"
INDEX 01 39:19:69
TRACK 12 AUDIO
TITLE "Tomasek - Messa con graduale et offertorio, Op. 46 - III. Graduale 'Domine Dominus noster'"
PERFORMER "Marek Stryncl"
INDEX 01 45:41:13
TRACK 13 AUDIO
TITLE "Tomasek - Messa con graduale et offertorio, Op. 46 - IV. Credo"
PERFORMER "Marek Stryncl"
INDEX 01 51:42:43
TRACK 14 AUDIO
TITLE "Tomasek - Messa con graduale et offertorio, Op. 46 - V. Offertorium 'Sperent in Te'"
PERFORMER "Marek Stryncl"
INDEX 01 59:57:00
TRACK 15 AUDIO
TITLE "Tomasek - Messa con graduale et offertorio, Op. 46 - VI. Sanctus"
PERFORMER "Marek Stryncl"
INDEX 01 64:11:73
TRACK 16 AUDIO
TITLE "Tomasek - Messa con graduale et offertorio, Op. 46 - VII. Agnus Dei"
PERFORMER "Marek Stryncl"
INDEX 01 70:38:32

Вариант индексной карты (.CUE) с исправленным зазором перед десятым треком

REM GENRE Classical
REM DATE 2010
REM DISCID E011B910
REM COMMENT "ExactAudioCopy v1.0b3"
PERFORMER "Marek Stryncl"
TITLE "Vorisek & Tomasek – Masses – Marek Stryncl"
FILE "Vorisek & Tomasek – Masses – Marek Stryncl.flac" WAVE
TRACK 01 AUDIO
TITLE "Vorisek - Mass in B flat major - I. Kyrie"
PERFORMER "Marek Stryncl"
INDEX 01 00:00:00
TRACK 02 AUDIO
TITLE "Vorisek - Mass in B flat major - II. Gloria"
PERFORMER "Marek Stryncl"
INDEX 01 03:05:66
TRACK 03 AUDIO
TITLE "Vorisek - Graduale 'Benedictus es, Domine'"
PERFORMER "Marek Stryncl"
INDEX 01 09:46:72
TRACK 04 AUDIO
TITLE "Vorisek - Mass in B flat major - III. Credo"
PERFORMER "Marek Stryncl"
INDEX 01 11:46:01
TRACK 05 AUDIO
TITLE "Vorisek - Offertorium 'Mentis oppressae'"
PERFORMER "Marek Stryncl"
INDEX 01 19:45:22
TRACK 06 AUDIO
TITLE "Vorisek - Mass in B flat major - IV. Sanctus"
PERFORMER "Marek Stryncl"
INDEX 01 23:03:17
TRACK 07 AUDIO
TITLE "Vorisek - Mass in B flat major - V. Benedictus"
PERFORMER "Marek Stryncl"
INDEX 01 24:12:21
TRACK 08 AUDIO
TITLE "Vorisek - Mass in B flat major - VI. Agnus Dei"
PERFORMER "Marek Stryncl"
INDEX 01 26:38:56
TRACK 09 AUDIO
TITLE "Vorisek - Offertorium 'Quoniam iniquitatem cognosco'"
PERFORMER "Marek Stryncl"
INDEX 01 31:01:54
TRACK 10 AUDIO
TITLE "Tomasek - Messa con graduale et offertorio, Op. 46 - I. Kyrie"
PERFORMER "Marek Stryncl"
INDEX 00 34:48:10
INDEX 01 35:28:03
TRACK 11 AUDIO
TITLE "Tomasek - Messa con graduale et offertorio, Op. 46 - II. Gloria"
PERFORMER "Marek Stryncl"
INDEX 01 39:19:69
TRACK 12 AUDIO
TITLE "Tomasek - Messa con graduale et offertorio, Op. 46 - III. Graduale 'Domine Dominus noster'"
PERFORMER "Marek Stryncl"
INDEX 01 45:41:13
TRACK 13 AUDIO
TITLE "Tomasek - Messa con graduale et offertorio, Op. 46 - IV. Credo"
PERFORMER "Marek Stryncl"
INDEX 01 51:42:43
TRACK 14 AUDIO
TITLE "Tomasek - Messa con graduale et offertorio, Op. 46 - V. Offertorium 'Sperent in Te'"
PERFORMER "Marek Stryncl"
INDEX 01 59:57:00
TRACK 15 AUDIO
TITLE "Tomasek - Messa con graduale et offertorio, Op. 46 - VI. Sanctus"
PERFORMER "Marek Stryncl"
INDEX 01 64:11:73
TRACK 16 AUDIO
TITLE "Tomasek - Messa con graduale et offertorio, Op. 46 - VII. Agnus Dei"
PERFORMER "Marek Stryncl"
INDEX 01 70:38:32
INDEX 02 75:09:07

Вариант индексной карты (.CUE) с более мелким делением на треки

REM GENRE Classical
REM DATE 2010
REM DISCID E011B910
REM COMMENT "ExactAudioCopy v1.0b3"
PERFORMER "Marek Stryncl"
TITLE "Vorisek & Tomasek – Masses – Marek Stryncl"
FILE "Vorisek & Tomasek – Masses – Marek Stryncl.flac" WAVE
TRACK 01 AUDIO
TITLE "Vorisek - Mass in B flat major - I. Kyrie"
PERFORMER "Marek Stryncl"
INDEX 01 00:00:00
TRACK 02 AUDIO
TITLE "Vorisek - Mass in B flat major - II. Gloria - Gloria in excelsis -"
PERFORMER "Marek Stryncl"
INDEX 01 03:05:66
TRACK 03 AUDIO
TITLE "Vorisek - Mass in B flat major - II. Gloria - Qui tollis -"
PERFORMER "Marek Stryncl"
INDEX 01 05:11:19
TRACK 04 AUDIO
TITLE "Vorisek - Mass in B flat major - II. Gloria - Quoniam tu solus"
PERFORMER "Marek Stryncl"
INDEX 01 07:16:42
TRACK 05 AUDIO
TITLE "Vorisek - Graduale 'Benedictus es, Domine'"
PERFORMER "Marek Stryncl"
INDEX 01 09:46:72
TRACK 06 AUDIO
TITLE "Vorisek - Mass in B flat major - III. Credo - Credo in unum Deum -"
PERFORMER "Marek Stryncl"
INDEX 01 11:46:01
TRACK 07 AUDIO
TITLE "Vorisek - Mass in B flat major - III. Credo - Et incarnatus est -"
PERFORMER "Marek Stryncl"
INDEX 01 14:05:03
TRACK 08 AUDIO
TITLE "Vorisek - Mass in B flat major - III. Credo - Et resurrexit"
PERFORMER "Marek Stryncl"
INDEX 01 16:12:16
TRACK 09 AUDIO
TITLE "Vorisek - Offertorium 'Mentis oppressae'"
PERFORMER "Marek Stryncl"
INDEX 01 19:45:22
TRACK 10 AUDIO
TITLE "Vorisek - Mass in B flat major - IV. Sanctus"
PERFORMER "Marek Stryncl"
INDEX 01 23:03:17
TRACK 11 AUDIO
TITLE "Vorisek - Mass in B flat major - V. Benedictus"
PERFORMER "Marek Stryncl"
INDEX 01 24:12:21
TRACK 12 AUDIO
TITLE "Vorisek - Mass in B flat major - VI. Agnus Dei - Agnus Dei -"
PERFORMER "Marek Stryncl"
INDEX 01 26:38:56
TRACK 13 AUDIO
TITLE "Vorisek - Mass in B flat major - VI. Agnus Dei - Dona nobis"
PERFORMER "Marek Stryncl"
INDEX 01 29:28:37
TRACK 14 AUDIO
TITLE "Vorisek - Offertorium 'Quoniam iniquitatem cognosco'"
PERFORMER "Marek Stryncl"
INDEX 01 31:01:54
TRACK 15 AUDIO
TITLE "Tomasek - Messa con graduale et offertorio, Op. 46 - I. Kyrie"
PERFORMER "Marek Stryncl"
INDEX 00 34:48:10
INDEX 01 35:28:03
TRACK 16 AUDIO
TITLE "Tomasek - Messa con graduale et offertorio, Op. 46 - II. Gloria - Gloria in excelsis -"
PERFORMER "Marek Stryncl"
INDEX 01 39:19:69
TRACK 17 AUDIO
TITLE "Tomasek - Messa con graduale et offertorio, Op. 46 - II. Gloria - Qui tollis -"
PERFORMER "Marek Stryncl"
INDEX 01 41:57:01
TRACK 18 AUDIO
TITLE "Tomasek - Messa con graduale et offertorio, Op. 46 - II. Gloria - Quoniam tu solus"
PERFORMER "Marek Stryncl"
INDEX 01 43:36:68
TRACK 19 AUDIO
TITLE "Tomasek - Messa con graduale et offertorio, Op. 46 - III. Graduale 'Domine Dominus noster'"
PERFORMER "Marek Stryncl"
INDEX 01 45:41:13
TRACK 20 AUDIO
TITLE "Tomasek - Messa con graduale et offertorio, Op. 46 - IV. Credo - Credo im unum Deum -"
PERFORMER "Marek Stryncl"
INDEX 01 51:42:43
TRACK 21 AUDIO
TITLE "Tomasek - Messa con graduale et offertorio, Op. 46 - IV. Credo - Et incarnatus est -"
PERFORMER "Marek Stryncl"
INDEX 01 53:46:65
TRACK 22 AUDIO
TITLE "Tomasek - Messa con graduale et offertorio, Op. 46 - IV. Credo - Et resurrexit -"
PERFORMER "Marek Stryncl"
INDEX 01 55:15:02
TRACK 23 AUDIO
TITLE "Tomasek - Messa con graduale et offertorio, Op. 46 - IV. Credo - Et vitam venturi"
PERFORMER "Marek Stryncl"
INDEX 01 58:09:51
TRACK 24 AUDIO
TITLE "Tomasek - Messa con graduale et offertorio, Op. 46 - V. Offertorium 'Sperent in Te' - Sperent in Te -"
PERFORMER "Marek Stryncl"
INDEX 01 59:57:00
TRACK 25 AUDIO
TITLE "Tomasek - Messa con graduale et offertorio, Op. 46 - V. Offertorium 'Sperent in Te' - Psallite Domino"
PERFORMER "Marek Stryncl"
INDEX 01 61:25:13
TRACK 26 AUDIO
TITLE "Tomasek - Messa con graduale et offertorio, Op. 46 - VI. Sanctus - Sanctus -"
PERFORMER "Marek Stryncl"
INDEX 01 64:11:73
TRACK 27 AUDIO
TITLE "Tomasek - Messa con graduale et offertorio, Op. 46 - VI. Sanctus - Benedictus"
PERFORMER "Marek Stryncl"
INDEX 01 65:55:10
TRACK 28 AUDIO
TITLE "Tomasek - Messa con graduale et offertorio, Op. 46 - VII. Agnus Dei"
PERFORMER "Marek Stryncl"
INDEX 01 70:38:32
INDEX 02 75:09:07
[teatrix.ru].t21682.torrent 
Торрент: Зарегистрирован [ 2016-03-20 12:54 ] · 0470E67C463C88B5059798991B91085F927B0F7F

Скачать .torrent

Скачать

18 KB

Статус: проверено
Скачан: 0 раз
Размер: 417 MB
terms.php



Быстрый ответ

Имя:

      
Для отправки сообщений необходимо включить JavaScript
Показать сообщения:    

Текущее время: 03-Дек 14:34

Часовой пояс: UTC + 3


Вы можете начинать темы
Вы можете отвечать на сообщения
Вы не можете редактировать свои сообщения
Вы не можете удалять свои сообщения
Вы не можете голосовать в опросах
Вы не можете прикреплять файлы к сообщениям
Вы можете скачивать файлы