[TR24][OF] Felix Mendelssohn Bartholdy: String Quartets Nos. 1 & 4 - Escher String Quartet - 2015 (Classical)


Статистика раздачи [Обновить пиров]
Размер:  1.48 GB   |    Зарегистрирован:  8 месяцев 13 дней   |    Скачан:  2 раза

Полного источника не было: 1 месяц 8 дней

 
   
 
 
 

[Цитировать]

Felix Mendelssohn Bartholdy
String Quartets Nos. 1 & 4
Escher String Quartet
-Год издания: 2015 | Жанр: Classical
Издатель: BIS Records | Продолжительность: 01:20:10
Наличие сканов: Sleeve, Digital Booklet- -Контейнер: FLAC (*.flac) | Тип рипа: tracks
Разрядность: 24bit / 96kHz | Количество каналов: 2.0
-Треклист
Felix Mendelssohn Bartholdy (1809-1847)
Quartet No.1 in E flat major, Op.12, MWV R25 (1829)
01.I. Adagio non troppo – Allegro non tardante (7:37)
02. II. Canzonetta. Allegretto (3:50)
03. III. Andante espressivo (4:59)
04. IV. Molto allegro e vivace (8:33)
Quartet in E flat major, MWV R18 (1823)
05. I. Allegro moderato (9:37)
06. II. Adagio non troppo (6:09)
07. III. Minuetto. Trio (7:09)
08. IV. Fuga (4:36)
Quartet No.4 in E minor, Op.44 No.2, MWV R26 (1837)
09. I. Allegro assai appassionato (10:09)
10. II. Scherzo. Allegro di molto (3:57)
11. III. Andante (6:16)
12. IV. Presto agitato (7:18)

О релизе


Founded in 2005, the Escher String Quartet is still a young ensemble as string quartets go. It has nevertheless become established as one of the most exciting quartets around, both in its home country, the U.S.A., and elsewhere, recently being shortlisted for a BBC Music Magazine Award. With their début disc on BIS, the Eschers launch a three-disc cycle of Mendelssohn’s string quartets, including the unnumbered String Quartet in E flat major and – on coming instalments – the four pieces for string quartet Op. 81. The quartet genre accompanied Mendelssohn throughout his life, from the previously mentioned E flat major quartet – which he composed at the age of 14 – to String Quartet No. 6 in F minor, his last major work, completed only two months before his death in 1847. As a body, the quartets demonstrate many of Mendelssohn’s finest qualities as a composer – his fascination for and understanding of the music of both Bach and Beethoven, his affinity for string instruments, and that gift for melody as well as texture which has made his Lieder ohne Worte and the elfin music to A Midsummer Night’s Dream so eternally popular. Composed in 1829, the Quartet Op. 12 is still an early work – from the time of the Hebrides Overture – while the E minor quartet, Op. 44 No. 2, can be counted as one of the first master-pieces by the mature composer.
Personnel:
Escher String Quartet:
Adam Barnett-Hart, violin
Aaron Boyd, violin
Pierre Lapointe, viola
Dane Johansen, cello
Recorded: April 2014 at Potton Hall, Suffolk, England

ОтчётыДинамический диапазон

foobar2000 1.3.8 / Dynamic Range Meter 1.1.1
log date: 2015-06-25 01:30:17
--------------------------------------------------------------------------------
Analyzed: Escher String Quartet / Mendelssohn: String Quartets Nos. 1 & 4
--------------------------------------------------------------------------------
DR Peak RMS Duration Track
--------------------------------------------------------------------------------
DR14 -0.59 dB -19.43 dB 7:37 01-Quartet No.1 in E flat major, Op.12, MWV R25 (1829) - I. Adagio non troppo – Allegro non tardante
DR14 -6.74 dB -24.17 dB 3:50 02-Quartet No.1 in E flat major, Op.12, MWV R25 (1829) - II. Canzonetta. Allegretto
DR13 -3.27 dB -21.28 dB 4:59 03-Quartet No.1 in E flat major, Op.12, MWV R25 (1829) - III. Andante espressivo
DR15 -0.20 dB -19.23 dB 8:33 04-Quartet No.1 in E flat major, Op.12, MWV R25 (1829) - IV. Molto allegro e vivace
DR14 -2.19 dB -20.54 dB 9:37 05-Quartet in E flat major, MWV R18 (1823) - I. Allegro moderato
DR13 -3.55 dB -21.93 dB 6:09 06-Quartet in E flat major, MWV R18 (1823) - II. Adagio non troppo
DR15 -0.66 dB -21.10 dB 7:09 07-Quartet in E flat major, MWV R18 (1823) - III. Minuetto. Trio
DR13 -0.44 dB -16.95 dB 4:36 08-Quartet in E flat major, MWV R18 (1823) - IV. Fuga
DR15 -0.20 dB -19.22 dB 10:09 09-Quartet No.4 in E minor, Op.44 No.2, MWV R26 (1837) - I. Allegro assai appassionato
DR14 -0.20 dB -20.35 dB 3:57 10-Quartet No.4 in E minor, Op.44 No.2, MWV R26 (1837) - II. Scherzo. Allegro di molto
DR13 -5.07 dB -22.59 dB 6:16 11-Quartet No.4 in E minor, Op.44 No.2, MWV R26 (1837) - III. Andante
DR15 -0.20 dB -18.95 dB 7:18 12-Quartet No.4 in E minor, Op.44 No.2, MWV R26 (1837) - IV. Presto agitato
--------------------------------------------------------------------------------
Number of tracks: 12
Official DR value: DR14
Samplerate: 96000 Hz
Channels: 2
Bits per sample: 24
Bitrate: 2659 kbps
Codec: FLAC
================================================================================

Скриншот спектра частот

Доп. информация

При скачивании, если необходимо, переименуйте папку, в которой будет находиться альбомБольшая просьба к скачавшим поддерживать раздачу! Помогайте другим, ведь вам тоже может понадобиться помощь!Не забываем говорить "Спасибо"!Комментарии приветствуются!
[teatrix.ru].t21685.torrent 
Торрент: Зарегистрирован [ 2016-03-20 12:53 ] · 7C98D436B69A0695CC0DC04BA8E17A842370D1CB

Скачать .torrent

Скачать

17 KB

Статус: проверено
Скачан: 2 раз
Размер: 1.48 GB
terms.php



Быстрый ответ

Имя:

      
Для отправки сообщений необходимо включить JavaScript
Показать сообщения:    

Текущее время: 02-Дек 21:14

Часовой пояс: UTC + 3


Вы можете начинать темы
Вы можете отвечать на сообщения
Вы не можете редактировать свои сообщения
Вы не можете удалять свои сообщения
Вы не можете голосовать в опросах
Вы не можете прикреплять файлы к сообщениям
Вы можете скачивать файлы