[TR24][OF] New Seasons: Philip Glass, Arvo Pärt (Part), Giya Kancheli, Shigeru Umebayashi - Gidon Kremer (Gidons Krēmers/Kremers, Гидон Кремер), Kremerata Baltica - 2015 (Classical)


Статистика раздачи [Обновить пиров]
Размер:  2.51 GB   |    Зарегистрирован:  8 месяцев 13 дней   |    Скачан:  3 раза

Полного источника не было: 12 дней

 
   
 
 
 

[Цитировать]

New Seasons
Glass | Pärt | Kancheli | Umebayashi
Kremerata Baltica & Gidon Kremer
-Год издания: 2015 | Жанр: Classical
Издатель: Deutsche Grammophon | Продолжительность: 01:17:43
Наличие сканов: Sleeve, Digital Booklet- -Контейнер: FLAC (*.flac) | Тип рипа: tracks
Разрядность: 24bit / 192kHz | Количество каналов: 2.0
-Треклист
Philip Glass (*1937)
Violin Concerto No. 2 "The American Four Seasons"
01.Prologue (1:38)
02. Movement I (6:28)
03. Song No. 1 (4:06)
04. Movement II (11:13)
05. Song No. 2 (2:29)
06. Movement III (6:19)
07. Song No. 3 (2:50)
08. Movement IV (7:05)
Arvo Pärt (*1935)
09. Estonian Lullaby (2:11)*
Giya Kancheli (*1935)
10. Ex Contrario (29:59)**
Shigeru Umebayashi (*1952)
11. Yumeji's Theme (From "In the Mood for Love") (3:25)

О релизе


Gidon Kremer returns to the Yellow label after more than a decade with the brand new reference recording of Philip Glass’ Second Violin Concerto – “The American Seasons”, his first solo concerto album in many years. The first Glass Violin Concerto, performed by Kremer and released by DG in 1993, has achieved cult status and shipped close to 90k units (in Germany alone over 25k copies) – and has become a staple of DG’s contemporary music catalogue.
Now, this extraordinary follow-up Concerto is at the heart of the repertoire of the Kremerata Baltica. Performed for the first time in San José, Costa Rica with Gidon Kremer as soloist in August 2013, it will be toured later in the year - info to follow shortly.
The album is completed by works of Arvo Pärt and Giya Kancheli – two composers both closely associated with Gidon Kremer, and who are both set to celebrate milestone 80th birthdays this year. Gidon has also added the short piece by the well-known Japanese film composer Shigeru Umebayashi as a tribute to his Japanese friends.
Four highly regarded visual artists and film maker have created four different films for each of the American Seasons that are projected to screens during concert performances.
Personnel:
Gidon Kremer, violin
Kremerata Baltica
(*) Girls' Choir "Liepaitės"
Choir Director: Jolita Vaitkevičienė
(**) Giedrė Dirvanauskaitė, cello
(**) Andrei Pushkarev, keyboards
Recorded: Vilnius, Lithuanian National Radio Recording Studio, 2/2013 (Glass, Kancheli, Umebayashi); 9/2014 (Pärt)

ОтчётыДинамический диапазон

foobar2000 1.3.8 / Dynamic Range Meter 1.1.1
log date: 2015-07-08 13:19:49
--------------------------------------------------------------------------------
Analyzed: Gidon Kremer, Kremerata Baltica, Girls' Choir "Liepaitės" / New Seasons (1)
Gidon Kremer, Kremerata Baltica, Giedrė Dirvanauskaitė, Andrei Pushkarev / New Seasons (2)
Gidon Kremer, Kremerata Baltica / New Seasons (3-11)
--------------------------------------------------------------------------------
DR Peak RMS Duration Track
--------------------------------------------------------------------------------
DR12 -0.69 dB -26.67 dB 2:11 09-Estonian Lullaby
DR17 -0.39 dB -24.71 dB 29:59 10-Ex Contrario
DR13 -13.80 dB -34.90 dB 1:38 01-Violin Concerto No. 2 "The American Four Seasons": Prologue
DR14 -5.40 dB -24.22 dB 6:28 02-Violin Concerto No. 2 "The American Four Seasons": Movement I
DR15 -10.79 dB -32.29 dB 4:06 03-Violin Concerto No. 2 "The American Four Seasons": Song No. 1
DR15 -4.82 dB -26.48 dB 11:13 04-Violin Concerto No. 2 "The American Four Seasons": Movement II
DR13 -10.95 dB -32.14 dB 2:29 05-Violin Concerto No. 2 "The American Four Seasons": Song No. 2
DR13 -3.17 dB -21.46 dB 6:19 06-Violin Concerto No. 2 "The American Four Seasons": Movement III
DR14 -9.78 dB -30.91 dB 2:50 07-Violin Concerto No. 2 "The American Four Seasons": Song No. 3
DR14 -0.46 dB -19.77 dB 7:05 08-Violin Concerto No. 2 "The American Four Seasons": Movement IV
DR12 -5.31 dB -26.27 dB 3:25 11-Yumeji's Theme (From "In the Mood for Love")
--------------------------------------------------------------------------------
Number of tracks: 11
Official DR value: DR14
Samplerate: 192000 Hz
Channels: 2
Bits per sample: 24
Bitrate: 4746 kbps
Codec: FLAC
================================================================================

Скриншот спектра частот

Доп. информация

При скачивании, если необходимо, переименуйте папку, в которой будет находиться альбомБольшая просьба к скачавшим поддерживать раздачу! Помогайте другим, ведь вам тоже может понадобиться помощь!Не забываем говорить "Спасибо"!Комментарии приветствуются!
[teatrix.ru].t21686.torrent 
Торрент: Зарегистрирован [ 2016-03-20 12:53 ] · ABCB11273DCAF85450A663F283812EAC2260C6D8

Скачать .torrent

Скачать

14 KB

Статус: проверено
Скачан: 3 раз
Размер: 2.51 GB
terms.php



Быстрый ответ

Имя:

      
Для отправки сообщений необходимо включить JavaScript
Показать сообщения:    

Текущее время: 03-Дек 01:21

Часовой пояс: UTC + 3


Вы можете начинать темы
Вы можете отвечать на сообщения
Вы не можете редактировать свои сообщения
Вы не можете удалять свои сообщения
Вы не можете голосовать в опросах
Вы не можете прикреплять файлы к сообщениям
Вы можете скачивать файлы