Джузеппе Верди - Риголетто (Паваротти, Груберова) / Giuseppe Verdi - Rigoletto (Wixell, Pavarotti, Gruberova) Riccardo Chailly (Jean-Pierre Ponnelle) [1982, Opera-Film, HDRip-AVC] Sub [Русские][English, German, French, Italian, Espanol]


 

[Цитировать]

-ДЖУЗЕППЕ Фортунино Франческо ВЕРДИ
10 октября (October 10,) 1813 — 13 января (January 27,) 1901
»«Р И Г О Л Е Т Т О»«
Либретто Франческо Марии Пьяве
по мотивам драмы Виктора Гюго (1798-1865) "Король забавляется"
-- ГОД ЗАПИСИ 1982
РЕЖИССЁР ЖАН-ПЬЕР ПОННЕЛЬ Jean-Pierre Ponnelle
Язык: Итальянский
Субтитры/Subtitles: РУССКИЕ (P. Jurgenson),
English, French, German, Italian, Espanol
Продолжительность: 125 min.
ГЕРЦОГ МАНТУАНСКИЙ Лучано ПАВАРОТТИ Luciano Pavarotti
РИГОЛЕТТО Ингвар ВИКСЕЛЬ Ingvar Wixell
ДЖИЛЬДА Эдита ГРУБЕРОВА Edita Gruberová
МОНТЕРОНЕ Ингвар ВИКСЕЛЬ Ingvar Wixell
СПАРАФУЧИЛЕ Ферруччо ФУРЛАНЕТТО Ferruccio Furlanetto
МАДДАЛЕНА Виктория ВЕРГАРА Victoria Vergara
ДЖОВАННА Федора БАРБЬЕРИ Fedora Barbieri
ХОР и ОРКЕСТР Венской государственной оперы
ДИРИЖЁР Риккардо ШАЙИ Riccardo Chailly

Качество видео: HDRip-AVC
♫ Sample ♫
Исходник: BDRip-AVC 1080 by Vilboa
Формат/Контейнер: MKV
Видео кодек: H.264
Аудио кодек: DTS
Видео поток: 1024x764, 4000 kbps, 29,970 fps.
Аудио поток: Italian, 1509 kbps, 48,0 KHz, 24 bit, 6 ch
Навигация по главам: Есть

Скриншоты

MediaInfo

-

x264.log


avs [info]: 1024x764p 1:1 @ 10000000/333667 fps (cfr)
x264 [info]: using SAR=1/1
x264 [info]: using cpu capabilities: MMX2 SSE2Fast SSEMisalign LZCNT
x264 [info]: profile High, level 4.1
x264 [info]: frame I:1113 Avg QP:17.34 size:101148
x264 [info]: frame P:48941 Avg QP:19.60 size: 36022
x264 [info]: frame B:161997 Avg QP:22.05 size: 10256
x264 [info]: consecutive B-frames: 1.8% 3.7% 8.7% 26.6% 17.9% 37.9% 3.4%
x264 [info]: mb I I16..4: 3.3% 74.3% 22.4%
x264 [info]: mb P I16..4: 1.2% 14.9% 1.7% P16..4: 30.0% 35.9% 13.0% 0.0% 0.0% skip: 3.3%
x264 [info]: mb B I16..4: 0.3% 1.7% 0.1% B16..8: 28.3% 18.5% 3.3% direct: 8.8% skip:39.0% L0:34.1% L1:47.3% BI:18.6%
x264 [info]: 8x8 transform intra:81.7% inter:55.4%
x264 [info]: direct mvs spatial:98.8% temporal:1.2%
x264 [info]: coded y,uvDC,uvAC intra: 80.7% 78.2% 45.3% inter: 25.0% 19.2% 1.5%
x264 [info]: i16 v,h,dc,p: 40% 16% 9% 35%
x264 [info]: i8 v,h,dc,ddl,ddr,vr,hd,vl,hu: 13% 8% 10% 8% 11% 13% 11% 13% 14%
x264 [info]: i4 v,h,dc,ddl,ddr,vr,hd,vl,hu: 19% 8% 10% 7% 11% 13% 10% 11% 11%
x264 [info]: i8c dc,h,v,p: 36% 25% 23% 17%
x264 [info]: Weighted P-Frames: Y:7.3% UV:3.7%
x264 [info]: ref P L0: 50.2% 12.7% 20.7% 5.9% 5.2% 4.3% 0.9% 0.1%
x264 [info]: ref B L0: 84.2% 9.7% 3.9% 1.6% 0.7%
x264 [info]: ref B L1: 95.5% 4.5%
x264 [info]: kb/s:3999.08
-
General
Unique ID : 234415368160403226669170222765688546356 (0xB05AC1F8654DD759982A57968620E434)
Complete name : Rigoletto (Ponnelle) 1982.mkv
Format : Matroska
Format version : Version 4 / Version 2
File size : 4.55 GiB
Duration : 1h 57mn
Overall bit rate : 5 522 Kbps
Encoded date : UTC 2015-07-08 15:20:11
Writing application : mkvmerge v8.1.0 ('Psychedelic Postcard') 32bit
Writing library : libebml v1.3.1 + libmatroska v1.4.2
Video
ID : 1
Format : AVC
Format/Info : Advanced Video Codec
Format profile : High@L4.1
Format settings, CABAC : Yes
Format settings, ReFrames : 6 frames
Codec ID : V_MPEG4/ISO/AVC
Duration : 1h 57mn
Bit rate : 4 000 Kbps
Width : 1 024 pixels
Height : 764 pixels
Display aspect ratio : 4:3
Frame rate mode : Constant
Frame rate : 29.970 fps
Color space : YUV
Chroma subsampling : 4:2:0
Bit depth : 8 bits
Scan type : Progressive
Bits/(Pixel*Frame) : 0.171
Stream size : 3.21 GiB (71%)
Writing library : x264 core 130 r2273 b3065e6
Encoding settings : cabac=1 / ref=6 / deblock=1:-3:-3 / analyse=0x3:0x113 / me=umh / subme=11 / psy=1 / psy_rd=1.05:0.15 / mixed_ref=1 / me_range=32 / chroma_me=1 / trellis=2 / 8x8dct=1 / cqm=0 / deadzone=21,11 / fast_pskip=1 / chroma_qp_offset=-3 / threads=3 / lookahead_threads=1 / sliced_threads=0 / nr=0 / decimate=1 / interlaced=0 / bluray_compat=0 / constrained_intra=0 / bframes=6 / b_pyramid=2 / b_adapt=2 / b_bias=0 / direct=3 / weightb=1 / open_gop=0 / weightp=2 / keyint=250 / keyint_min=25 / scenecut=40 / intra_refresh=0 / rc=2pass / mbtree=0 / bitrate=4000 / ratetol=1.0 / qcomp=0.65 / qpmin=0 / qpmax=69 / qpstep=4 / cplxblur=20.0 / qblur=0.5 / ip_ratio=1.40 / pb_ratio=1.30 / aq=1:0.90
Language : English
Default : Yes
Forced : No
Audio
ID : 2
Format : DTS
Format/Info : Digital Theater Systems
Mode : 16
Format settings, Endianness : Big
Codec ID : A_DTS
Duration : 1h 57mn
Bit rate mode : Constant
Bit rate : 1 509 Kbps
Channel(s) : 6 channels
Channel positions : Front: L C R, Side: L R, LFE
Sampling rate : 48.0 KHz
Bit depth : 24 bits
Compression mode : Lossy
Stream size : 1.24 GiB (27%)
Language : Italian
Default : Yes
Forced : No
Text #1
ID : 3
Format : UTF-8
Codec ID : S_TEXT/UTF8
Codec ID/Info : UTF-8 Plain Text
Language : Russian
Default : Yes
Forced : No
Text #2
ID : 4
Format : VobSub
Muxing mode : zlib
Codec ID : S_VOBSUB
Codec ID/Info : Picture based subtitle format used on DVDs
Language : English
Default : No
Forced : No
Text #3
ID : 5
Format : VobSub
Muxing mode : zlib
Codec ID : S_VOBSUB
Codec ID/Info : Picture based subtitle format used on DVDs
Language : German
Default : No
Forced : No
Text #4
ID : 6
Format : VobSub
Muxing mode : zlib
Codec ID : S_VOBSUB
Codec ID/Info : Picture based subtitle format used on DVDs
Language : French
Default : No
Forced : No
Text #5
ID : 7
Format : VobSub
Muxing mode : zlib
Codec ID : S_VOBSUB
Codec ID/Info : Picture based subtitle format used on DVDs
Language : Spanish
Default : No
Forced : No
Text #6
ID : 8
Format : VobSub
Muxing mode : zlib
Codec ID : S_VOBSUB
Codec ID/Info : Picture based subtitle format used on DVDs
Language : Italian
Default : No
Forced : No
Menu
00:02:39.459 : en:Act 1
00:53:58.079 : en:Act 2
01:24:11.193 : en:Act 3



Показать сообщения:    

Текущее время: 09-Дек 03:06

Часовой пояс: UTC + 3


Вы не можете начинать темы
Вы не можете отвечать на сообщения
Вы не можете редактировать свои сообщения
Вы не можете удалять свои сообщения
Вы не можете голосовать в опросах
Вы не можете прикреплять файлы к сообщениям
Вы не можете скачивать файлы