(Opera) Derungs - Il Semiader (Danuser, Knutti, Graf, Lendi - Chor Ad Hoc / Orchestra della Svizzera Italiana, Caduff) - 1996, APE (image+.cue) lossless


 

[Цитировать]

Gion Antoni Derungs - Il Semiader
Жанр: Opera
Страна-производитель диска: Switzerland
Год издания диска: 1996
Издатель (лейбл): MGB
Номер по каталогу: CD 6140
Дата записи: 1996
Аудиокодек: APE
Тип рипа: image+.cue
Битрейт аудио: lossless
Продолжительность: 56'39+45'44
Источник: собственный рип
Наличие сканов в содержимом раздачи: да
Треклист:
CD1
01-07 Act I
08-17 Act II
CD2
01-06 Act III
07-15 Act IV
Исполнители:
Gion Antoni Derungs - Il Semiader
Opera in 4 Acts op. 125
Libretto: Lothar Deplazes
Premiere: 13. Juni 1996, im Stadttheater Chur
Il semiader - Claudio Danuser, bariton
Carpett - Jean-Jacques Knutti, tenor
Brida - Judith Graf, soprano
Kommissärin - Lucretia Lendi, mezzo-soprano
Giacometti - Georg Fluor, tenor
Saint Martin - Rico Peterelli, bariton
Königin von Saba - Barbara Sutter, mezzo-soprano
Chor Ad Hoc
Orchestra della Svizzera Italiana, Lugano
Sylvia Caduff, conductor

Лог создания рипа

CD1

Exact Audio Copy V1.0 beta 6 from 9. April 2015
EAC extraction logfile from 10. June 2015, 17:21
Derungs / Il Semiader, Caduff CD1
Used drive : HL-DT-STDVDRAM GH22NS50 Adapter: 1 ID: 0
Read mode : Secure
Utilize accurate stream : Yes
Defeat audio cache : Yes
Make use of C2 pointers : No
Read offset correction : 667
Overread into Lead-In and Lead-Out : No
Fill up missing offset samples with silence : Yes
Delete leading and trailing silent blocks : No
Null samples used in CRC calculations : Yes
Used interface : Native Win32 interface for Win NT & 2000
Used output format : Monkey's Audio Lossless Encoder
Selected bitrate : High Lossless Compression
Quality : High
Add ID3 tag : Yes
Command line compressor : C:\Program Files (x86)\Exact Audio Copy\MAC\MAC.exe
TOC of the extracted CD
Track | Start | Length | Start sector | End sector
---------------------------------------------------------
1 | 0:00.32 | 3:02.70 | 32 | 13751
2 | 3:03.27 | 5:27.40 | 13752 | 38316
3 | 8:30.67 | 3:40.43 | 38317 | 54859
4 | 12:11.35 | 5:22.60 | 54860 | 79069
5 | 17:34.20 | 3:00.32 | 79070 | 92601
6 | 20:34.52 | 3:53.68 | 92602 | 110144
7 | 24:28.45 | 2:52.52 | 110145 | 123096
8 | 27:21.22 | 3:59.45 | 123097 | 141066
9 | 31:20.67 | 3:07.28 | 141067 | 155119
10 | 34:28.20 | 3:20.62 | 155120 | 170181
11 | 37:49.07 | 1:58.43 | 170182 | 179074
12 | 39:47.50 | 2:15.67 | 179075 | 189266
13 | 42:03.42 | 5:58.45 | 189267 | 216161
14 | 48:02.12 | 3:49.63 | 216162 | 233399
15 | 51:52.00 | 4:39.50 | 233400 | 254374
Range status and errors
Selected range
Filename D:\EAC\Derungs - Il Semiader, Caduff\CD1\Derungs - Il Semiader, Caduff CD1.wav
Peak level 94.2 %
Extraction speed 1.8 X
Range quality 99.9 %
Test CRC 84BF6F04
Copy CRC 84BF6F04
Copy OK
No errors occurred
AccurateRip summary
Track 1 not present in database
Track 2 not present in database
Track 3 not present in database
Track 4 not present in database
Track 5 not present in database
Track 6 not present in database
Track 7 not present in database
Track 8 not present in database
Track 9 not present in database
Track 10 not present in database
Track 11 not present in database
Track 12 not present in database
Track 13 not present in database
Track 14 not present in database
Track 15 not present in database
None of the tracks are present in the AccurateRip database
End of status report
---- CUETools DB Plugin V2.1.6
[CTDB TOCID: 2Dwg9p244FQDXZCo6lUBDO6tXVk-] disk not present in database
Submit result: 2Dwg9p244FQDXZCo6lUBDO6tXVk- has been uploaded
==== Log checksum FB2DFC925A57B90674239D92569F0C3DD95CFAD35C4A2C12A8E34BEC1D118B26 ====

CD2

Exact Audio Copy V1.0 beta 3 from 29. August 2011
EAC extraction logfile from 4. May 2015, 13:14
Derungs / Il Semiader, Caduff CD2
Used drive : HL-DT-STDVDRAM GH22NS50 Adapter: 0 ID: 2
Read mode : Secure
Utilize accurate stream : Yes
Defeat audio cache : Yes
Make use of C2 pointers : No
Read offset correction : 667
Overread into Lead-In and Lead-Out : No
Fill up missing offset samples with silence : Yes
Delete leading and trailing silent blocks : No
Null samples used in CRC calculations : Yes
Used interface : Native Win32 interface for Win NT & 2000
Used output format : Monkey's Audio Lossless Encoder
Selected bitrate : High Lossless Compression
Quality : High
Add ID3 tag : Yes
Command line compressor : C:\Program Files (x86)\Exact Audio Copy\MAC\MAC.exe
TOC of the extracted CD
Track | Start | Length | Start sector | End sector
---------------------------------------------------------
1 | 0:00.32 | 5:06.35 | 32 | 23016
2 | 5:06.67 | 1:14.43 | 23017 | 28609
3 | 6:21.35 | 1:55.10 | 28610 | 37244
4 | 8:16.45 | 1:14.15 | 37245 | 42809
5 | 9:30.60 | 3:54.07 | 42810 | 60366
6 | 13:24.67 | 5:12.25 | 60367 | 83791
7 | 18:37.17 | 3:52.38 | 83792 | 101229
8 | 22:29.55 | 2:48.25 | 101230 | 113854
9 | 25:18.05 | 3:00.57 | 113855 | 127411
10 | 28:18.62 | 4:06.05 | 127412 | 145866
11 | 32:24.67 | 3:02.68 | 145867 | 159584
12 | 35:27.60 | 2:35.20 | 159585 | 171229
13 | 38:03.05 | 2:06.05 | 171230 | 180684
14 | 40:09.10 | 3:23.62 | 180685 | 195971
15 | 43:32.72 | 2:13.73 | 195972 | 206019
Range status and errors
Selected range
Filename D:\EAC\Derungs - Il Semiader, Caduff CD2.wav
Peak level 97.6 %
Extraction speed 1.6 X
Range quality 99.9 %
Test CRC 760CD484
Copy CRC 760CD484
Copy OK
No errors occurred
AccurateRip summary
Track 1 not present in database
Track 2 not present in database
Track 3 not present in database
Track 4 not present in database
Track 5 not present in database
Track 6 not present in database
Track 7 not present in database
Track 8 not present in database
Track 9 not present in database
Track 10 not present in database
Track 11 not present in database
Track 12 not present in database
Track 13 not present in database
Track 14 not present in database
Track 15 not present in database
None of the tracks are present in the AccurateRip database
End of status report
---- CUETools DB Plugin V2.1.3
[CTDB TOCID: TYtGvOChtnBZbpQivG1_r6nNN_4-] disk not present in database, Submit result: discs with pregaps not supported in this protocol version
==== Log checksum A9F996A2AC9801A644D0472268606F26E18AAE334EAB4548BA4BFAD99C11F4FE ====

Содержание индексной карты (.CUE)

CD1

REM GENRE Opera
REM DATE 1996
REM DISCID C20D3F0F
REM COMMENT "ExactAudioCopy v1.0b6"
PERFORMER "Derungs"
TITLE "Il Semiader, Caduff CD1"
FILE "Derungs - Il Semiader, Caduff CD1.ape" WAVE
TRACK 01 AUDIO
TITLE "Act I: scena 1"
PERFORMER "Derungs"
INDEX 00 00:00:00
INDEX 01 00:00:32
TRACK 02 AUDIO
TITLE "Act I: scena 2"
PERFORMER "Derungs"
INDEX 01 03:03:27
TRACK 03 AUDIO
TITLE "Act I: scena 3"
PERFORMER "Derungs"
INDEX 00 08:30:66
INDEX 01 08:30:67
TRACK 04 AUDIO
TITLE "Act I: scena 4"
PERFORMER "Derungs"
INDEX 00 12:11:34
INDEX 01 12:11:35
TRACK 05 AUDIO
TITLE "Act I: scena 5"
PERFORMER "Derungs"
INDEX 00 17:34:19
INDEX 01 17:34:20
TRACK 06 AUDIO
TITLE "Act I: scena 6"
PERFORMER "Derungs"
INDEX 00 20:34:51
INDEX 01 20:34:52
TRACK 07 AUDIO
TITLE "Act I: scena 7"
PERFORMER "Derungs"
INDEX 00 24:28:44
INDEX 01 24:28:45
TRACK 08 AUDIO
TITLE "Act II: scena 1"
PERFORMER "Derungs"
INDEX 00 27:19:46
INDEX 01 27:21:22
TRACK 09 AUDIO
TITLE "Act II: scena 2"
PERFORMER "Derungs"
INDEX 00 31:20:66
INDEX 01 31:20:67
TRACK 10 AUDIO
TITLE "Act II: scena 3"
PERFORMER "Derungs"
INDEX 00 34:28:19
INDEX 01 34:28:20
TRACK 11 AUDIO
TITLE "Act II: scena 4"
PERFORMER "Derungs"
INDEX 00 37:49:06
INDEX 01 37:49:07
TRACK 12 AUDIO
TITLE "Act II: scena 5"
PERFORMER "Derungs"
INDEX 00 39:47:49
INDEX 01 39:47:50
TRACK 13 AUDIO
TITLE "Act II: scena 6"
PERFORMER "Derungs"
INDEX 00 42:03:41
INDEX 01 42:03:42
TRACK 14 AUDIO
TITLE "Act II: scena 7"
PERFORMER "Derungs"
INDEX 00 48:02:11
INDEX 01 48:02:12
TRACK 15 AUDIO
TITLE "Act II: scena 8"
PERFORMER "Derungs"
INDEX 00 51:51:74
INDEX 01 51:52:00

CD2

REM GENRE Opera
REM DATE 1996
REM DISCID BA0ABA0F
REM COMMENT "ExactAudioCopy v1.0b3"
CATALOG 0000000000000
PERFORMER "Derungs"
TITLE "Il Semiader, Caduff CD2"
FILE "Derungs - Il Semiader, Caduff CD2.ape" WAVE
TRACK 01 AUDIO
TITLE "Act III: scena 1"
PERFORMER "Derungs"
INDEX 00 00:00:00
INDEX 01 00:00:32
TRACK 02 AUDIO
TITLE "Act III: scena 2"
PERFORMER "Derungs"
INDEX 01 05:06:67
TRACK 03 AUDIO
TITLE "Act III: scena 3"
PERFORMER "Derungs"
INDEX 01 06:21:35
TRACK 04 AUDIO
TITLE "Act III: scena 4"
PERFORMER "Derungs"
INDEX 01 08:16:45
TRACK 05 AUDIO
TITLE "Act III: scena 5"
PERFORMER "Derungs"
INDEX 01 09:30:60
TRACK 06 AUDIO
TITLE "Act III: scena 6"
PERFORMER "Derungs"
INDEX 01 13:24:67
TRACK 07 AUDIO
TITLE "Act IV: 1"
PERFORMER "Derungs"
INDEX 01 18:37:17
TRACK 08 AUDIO
TITLE "Act IV: 2"
PERFORMER "Derungs"
INDEX 01 22:29:55
TRACK 09 AUDIO
TITLE "Act IV: 3"
PERFORMER "Derungs"
INDEX 01 25:18:05
TRACK 10 AUDIO
TITLE "Act IV: 4"
PERFORMER "Derungs"
INDEX 01 28:18:62
TRACK 11 AUDIO
TITLE "Act IV: 5"
PERFORMER "Derungs"
INDEX 01 32:24:67
TRACK 12 AUDIO
TITLE "Act IV: 6"
PERFORMER "Derungs"
INDEX 01 35:27:60
TRACK 13 AUDIO
TITLE "Act IV: 7"
PERFORMER "Derungs"
INDEX 01 38:03:05
TRACK 14 AUDIO
TITLE "Act IV: 8"
PERFORMER "Derungs"
INDEX 01 40:09:10
TRACK 15 AUDIO
TITLE "Act IV: 9"
PERFORMER "Derungs"
INDEX 01 43:32:72



Показать сообщения:    

Текущее время: 03-Дек 16:46

Часовой пояс: UTC + 3


Вы не можете начинать темы
Вы не можете отвечать на сообщения
Вы не можете редактировать свои сообщения
Вы не можете удалять свои сообщения
Вы не можете голосовать в опросах
Вы не можете прикреплять файлы к сообщениям
Вы не можете скачивать файлы