Превращения. Константин Райкин (Елена Никитан) [2005, Документальный, DVB]


Статистика раздачи [Обновить пиров]
Размер:  829 MB   |    Зарегистрирован:  8 месяцев 19 дней   |    Скачан:  0 раз

Полного источника не было: Никогда

 
   
 
 
 

[Цитировать]

Превращения. Константин Райкин- Год выпуска: 2005
Страна: Россия
Жанр: документальный
Продолжительность: 00:38:45
Перевод: не требуется
Русские субтитры: нет-Режиссер: Елена Никитан-Описание: Этот артист, кажется, был обречен на славу еще до своего рождения. Но аншлаги по наследству не передаются. Сегодня художественный руководитель одного из самых популярных в Москве театров, лауреат самых престижных театральных премий – Константин Райкин приглашает в «Сатирикон» самых разных по почерку, стилю, направлению, эстетическим пристрастиям режиссеров и сам охотно играет в их спектаклях.
Включены сцены из спектаклей с участием Константина Райкина, использованы фрагменты программы «Мои любимые стихи».-Качество: DVB-T2
Формат: MPEG-TS
Видео: MPEG4 (H264), 720x576@768x576 (4:3), 25 fps, 2649 Kbps
Аудио: MP2, 48 KHz, 2 ch, 192 Kbps-

MediaInfo

General
ID : 1 (0x1)
Complete name : H:\Превращения. Константин Райкин (2005) [DVB-T2].ts
Format : MPEG-TS
File size : 829 MiB
Duration : 38mn 44s
Overall bit rate mode : Variable
Overall bit rate : 2 991 Kbps
Video
ID : 1061 (0x425)
Menu ID : 1 (0x1)
Format : AVC
Format/Info : Advanced Video Codec
Format profile : Main@L3
Format settings, CABAC : Yes
Format settings, ReFrames : 3 frames
Format settings, GOP : M=4, N=28
Codec ID : 27
Duration : 38mn 44s
Bit rate : 2 649 Kbps
Width : 720 pixels
Height : 576 pixels
Display aspect ratio : 4:3
Frame rate : 25.000 fps
Standard : Component
Color space : YUV
Chroma subsampling : 4:2:0
Bit depth : 8 bits
Scan type : Interlaced
Scan order : Top Field First
Bits/(Pixel*Frame) : 0.256
Stream size : 734 MiB (89%)
Color range : Limited
Color primaries : BT.601 PAL
Transfer characteristics : BT.470 System B, BT.470 System G
Matrix coefficients : BT.601
Audio
ID : 1062 (0x426)
Menu ID : 1 (0x1)
Format : MPEG Audio
Format version : Version 1
Format profile : Layer 2
Codec ID : 3
Duration : 38mn 44s
Bit rate mode : Constant
Bit rate : 192 Kbps
Channel(s) : 2 channels
Sampling rate : 48.0 KHz
Compression mode : Lossy
Stream size : 53.2 MiB (6%)
Language : English
Text
ID : 1064 (0x428)-100
Menu ID : 1 (0x1)
Format : Teletext Subtitle
Language : Russian
Language, more info : For hearing impaired people
Menu
ID : 1060 (0x424)
Menu ID : 1 (0x1)
Duration : 38mn 44s
List : 1061 (0x425) (AVC) / 1062 (0x426) (MPEG Audio, English) / 1064 (0x428) ()
Language : / English

Скриншоты

[teatrix.ru].t21690.torrent 
Торрент: Зарегистрирован [ 2016-03-20 12:54 ] · F493DB0BF6F37A5BCFDF453CF7D25AD2E15FF08C

Скачать .torrent

Скачать

17 KB

Статус: проверено
Скачан: 0 раз
Размер: 829 MB
terms.php



Быстрый ответ

Имя:

      
Для отправки сообщений необходимо включить JavaScript
Показать сообщения:    

Текущее время: 08-Дек 19:12

Часовой пояс: UTC + 3


Вы можете начинать темы
Вы можете отвечать на сообщения
Вы не можете редактировать свои сообщения
Вы не можете удалять свои сообщения
Вы не можете голосовать в опросах
Вы не можете прикреплять файлы к сообщениям
Вы можете скачивать файлы