(Classical) Томашек – Коронационная месса, op. 81; Антонин Враницкий – Месса Es-dur / Tomasek & Vranicky – Masses (Jana Jonasova, Marie Mrazova, Vladimir Dolezal, Richard Novak; Pavel Kuhn) - 1985 / 1994, FLAC (image+.cue) lossless


Статистика раздачи [Обновить пиров]
Размер:  312 MB   |    Зарегистрирован:  8 месяцев 20 дней   |    Скачан:  0 раз

Полного источника не было: Никогда

 
   
 
 
 

[Цитировать]

Томашек – Коронационная месса, op. 81; Антонин Враницкий – Месса Es-dur / Tomášek & Vranický – Masses (Kühn mixed Choir, Prague Chamber Orchestra, Pavel Kühn)
Жанр: Classical
Страна-производитель диска: Чехия
Год издания диска: 1985 / 1994
Издатель (лейбл): Supraphon
Номер по каталогу: 11 2138-2 231
Дата записи: 1 — 11 февраля (Томашек), 30 октября — 1 ноября (Враницкий) 1984 г., Прага.
Аудиокодек: FLAC
Тип рипа: image+.cue
Битрейт аудио: lossless
Продолжительность: 01:14:11
Источник: odeonmusic
Наличие сканов в содержимом раздачи: да
Треклист:-Вацлав Ян Крштитель Томашек (1774 — 1850).
01 — 06. Торжественная месса C-dur (коронационная) для солистов (SATB), хора (SATB) и оркестра, op. 81 (1835 — 1836).
Антонин Враницкий (1761 — 1820).
07 — 12. Месса Es-dur для солистов (SATB), хора (SATB) и оркестра.

Подробный треклист

Вацлав Ян Крштитель Томашек (1774 — 1850).-Торжественная месса C-dur (коронационная) для солистов (SATB), хора (SATB) и оркестра, op. 81 (1835 — 1836).
I. Kyrie.
01. Kyrie eleison. Andante [05:56].
II. Gloria.
02. Gloria in excelsis. Allegro risoluto. —
(03.) Qui tollis. Andantino. —
(04.) Quoniam tu solus. Allegro risoluto. —
(05.) Cum sancto spiritu [09:32].
III. Credo.
03. Credo in unum Deum. Moderato. —
(07.) Et incarnatus est. Andante. —
(08.) Et resurrexit. Moderato. —
(09.) Et vitam venturi [11:46].
IV. Sanctus.
04. Sanctus. Andante. — Allegro moderato [04:55].
V. Benedictus.
05. Benedictus. Andante grazioso. — Allegro moderato [06:04].
VI. Agnus Dei.
06. Agnus Dei. Quasi adagio [08:05].-Антонин Враницкий (1761 — 1820).-Месса Es-dur для солистов (SATB), хора (SATB) и оркестра.
I. Kyrie.
07. Kyrie eleison. Adagio con moto [04:55].
II. Gloria.
08. Gloria in excelsis. Allegro con fuoco [03:48].
III. Credo.
09. Credo in unum Deum. Allegro. —
(16.) Et incarnatus est. Adagio. —
(17.) Et resurrexit. Allegro [04:47].
IV. Sanctus.
10. Sanctus. Adagio. — Allegro vivace [01:32].
V. Benedictus.
11. Benedictus. Allegro poco moderato. — Allegro vivace [06:53].
VI. Agnus Dei.
12. Agnus Dei. Adagio poco sostenuto. —
(21.) Dona nobis. Allegretto non tanto [05:08].
-Исполнители:
Jana Jonášová (сопрано),
Marie Mrázová (контральто),
Vladimír Doležal (тенор),
Richard Novák (бас).
Kühn mixed Choir.
Jan Hora (орган).
Prague Chamber Orchestra.
Дирижер Pavel Kühn.-

Лог создания рипа

Exact Audio Copy V1.0 beta 3 from 29. August 2011
EAC extraction logfile from 6. April 2013, 19:52
Pavel Kühn / Tomásek, Vranický - Missae - Pavel Kühn
Used drive : TSSTcorpCDDVDW SH-222BB Adapter: 2 ID: 1
Read mode : Secure
Utilize accurate stream : Yes
Defeat audio cache : Yes
Make use of C2 pointers : No
Read offset correction : 6
Overread into Lead-In and Lead-Out : No
Fill up missing offset samples with silence : Yes
Delete leading and trailing silent blocks : No
Null samples used in CRC calculations : Yes
Used interface : Native Win32 interface for Win NT & 2000
Used output format : User Defined Encoder
Selected bitrate : 1024 kBit/s
Quality : High
Add ID3 tag : No
Command line compressor : C:\Program Files\Exact Audio Copy\Flac\flac.exe
Additional command line options : -8 -V -T "TITLE=%title%" -T "ARTIST=%artist%" -T "ALBUMARTIST=%albumartist%" -T "ALBUM=%albumtitle%" -T "DATE=%year%" -T "TRACKNUMBER=%tracknr%" -T "TRACKTOTAL=%numtracks%" -T "GENRE=%genre%" -T "COMMENT=%comment%" -T "PERFORMER=%albuminterpret%" -T "COMPOSER=%composer%" %source% -o %dest%
TOC of the extracted CD
Track | Start | Length | Start sector | End sector
---------------------------------------------------------
1 | 0:00.32 | 6:02.18 | 32 | 27199
2 | 6:02.50 | 9:37.02 | 27200 | 70476
3 | 15:39.52 | 11:52.05 | 70477 | 123881
4 | 27:31.57 | 5:00.03 | 123882 | 146384
5 | 32:31.60 | 6:09.40 | 146385 | 174099
6 | 38:41.25 | 8:15.32 | 174100 | 211256
7 | 46:56.57 | 4:56.45 | 211257 | 233501
8 | 51:53.27 | 3:51.63 | 233502 | 250889
9 | 55:45.15 | 4:49.67 | 250890 | 272631
10 | 60:35.07 | 1:34.23 | 272632 | 279704
11 | 62:09.30 | 6:54.35 | 279705 | 310789
12 | 69:03.65 | 5:08.57 | 310790 | 333946
Range status and errors
Selected range
Filename G:\Ripped general\[2494] Tomásek, Vranický – Missae – Pavel Kühn\Tomásek, Vranický - Missae - Pavel Kühn.wav
Peak level 92.1 %
Extraction speed 2.3 X
Range quality 100.0 %
Test CRC BC793A5D
Copy CRC BC793A5D
Copy OK
No errors occurred
AccurateRip summary
Track 1 not present in database
Track 2 not present in database
Track 3 not present in database
Track 4 not present in database
Track 5 not present in database
Track 6 not present in database
Track 7 not present in database
Track 8 not present in database
Track 9 not present in database
Track 10 not present in database
Track 11 not present in database
Track 12 not present in database
None of the tracks are present in the AccurateRip database
End of status report

Содержание индексной карты (.CUE)

REM GENRE Classical
REM DISCID A511640C
REM COMMENT "ExactAudioCopy v1.0b3"
PERFORMER "Pavel Kьhn"
TITLE "Tomasek & Vranicky – Masses – Pavel Kuhn"
FILE "Tomasek & Vranicky – Masses – Pavel Kuhn.flac" WAVE
TRACK 01 AUDIO
TITLE "Tomasek - Missa solemnis, Op. 81 - I. Kyrie. Andante"
PERFORMER "Prague Chamber Orchestra & Pavel Kuhn"
INDEX 00 00:00:00
INDEX 01 00:00:32
TRACK 02 AUDIO
TITLE "Tomasek - Missa solemnis, Op. 81 - II. Gloria. Allegro risoluto - Andantino - Allegro risoluto"
PERFORMER "Prague Chamber Orchestra & Pavel Kuhn"
INDEX 00 05:57:52
INDEX 01 06:02:50
TRACK 03 AUDIO
TITLE "Tomasek - Missa solemnis, Op. 81 - III. Credo. Moderato - Andante - Moderato"
PERFORMER "Prague Chamber Orchestra & Pavel Kuhn"
INDEX 00 15:35:02
INDEX 01 15:39:52
TRACK 04 AUDIO
TITLE "Tomasek - Missa solemnis, Op. 81 - IV. Sanctus. Andante - Allegro moderato"
PERFORMER "Prague Chamber Orchestra & Pavel Kuhn"
INDEX 00 27:25:70
INDEX 01 27:31:57
TRACK 05 AUDIO
TITLE "Tomasek - Missa solemnis, Op. 81 - V. Benedictus. Andante grazioso - Allegro moderato"
PERFORMER "Prague Chamber Orchestra & Pavel Kuhn"
INDEX 00 32:27:22
INDEX 01 32:31:60
TRACK 06 AUDIO
TITLE "Tomasek - Missa solemnis, Op. 81 - VI. Agnus Dei. Quasi adagio"
PERFORMER "Prague Chamber Orchestra & Pavel Kuhn"
INDEX 00 38:36:35
INDEX 01 38:41:25
TRACK 07 AUDIO
TITLE "Antonin Vranicky - Mass in E flat major - I. Kyrie. Adagio con moto"
PERFORMER "Prague Chamber Orchestra & Pavel Kuhn"
INDEX 00 46:46:72
INDEX 01 46:56:57
TRACK 08 AUDIO
TITLE "Antonin Vranicky - Mass in E flat major - II. Gloria. Allegro con fuoco"
PERFORMER "Prague Chamber Orchestra & Pavel Kuhn"
INDEX 00 51:51:72
INDEX 01 51:53:27
TRACK 09 AUDIO
TITLE "Antonin Vranicky - Mass in E flat major - III. Credo. Allegro - Adagio - Allegro"
PERFORMER "Prague Chamber Orchestra & Pavel Kuhn"
INDEX 00 55:42:25
INDEX 01 55:45:15
TRACK 10 AUDIO
TITLE "Antonin Vranicky - Mass in E flat major - IV. Sanctus. Adagio - Allegro vivace"
PERFORMER "Prague Chamber Orchestra & Pavel Kuhn"
INDEX 00 60:33:14
INDEX 01 60:35:07
TRACK 11 AUDIO
TITLE "Antonin Vranicky - Mass in E flat major - V. Benedictus. Allegro poco moderato - Allegro vivace"
PERFORMER "Prague Chamber Orchestra & Pavel Kuhn"
INDEX 00 62:07:25
INDEX 01 62:09:30
TRACK 12 AUDIO
TITLE "Antonin Vranicky - Mass in E flat major - VI. Agnus Dei. Adagio poco sostenuto - Allegretto non tanto"
PERFORMER "Prague Chamber Orchestra & Pavel Kuhn"
INDEX 00 69:02:67
INDEX 01 69:03:65

Вариант индексной карты (.CUE) с исправленными зазорами

REM GENRE Classical
REM DISCID A511640C
REM COMMENT "ExactAudioCopy v1.0b3"
PERFORMER "Pavel Kьhn"
TITLE "Tomasek & Vranicky – Masses – Pavel Kuhn"
FILE "Tomasek & Vranicky – Masses – Pavel Kuhn.flac" WAVE
TRACK 01 AUDIO
TITLE "Tomasek - Missa solemnis, Op. 81 - I. Kyrie. Andante"
PERFORMER "Prague Chamber Orchestra & Pavel Kuhn"
INDEX 00 00:00:00
INDEX 01 00:00:32
TRACK 02 AUDIO
TITLE "Tomasek - Missa solemnis, Op. 81 - II. Gloria. Allegro risoluto - Andantino - Allegro risoluto"
PERFORMER "Prague Chamber Orchestra & Pavel Kuhn"
INDEX 00 05:58:61
INDEX 01 06:02:50
TRACK 03 AUDIO
TITLE "Tomasek - Missa solemnis, Op. 81 - III. Credo. Moderato - Andante - Moderato"
PERFORMER "Prague Chamber Orchestra & Pavel Kuhn"
INDEX 00 15:36:04
INDEX 01 15:39:52
TRACK 04 AUDIO
TITLE "Tomasek - Missa solemnis, Op. 81 - IV. Sanctus. Andante - Allegro moderato"
PERFORMER "Prague Chamber Orchestra & Pavel Kuhn"
INDEX 00 27:27:30
INDEX 01 27:31:57
TRACK 05 AUDIO
TITLE "Tomasek - Missa solemnis, Op. 81 - V. Benedictus. Andante grazioso - Allegro moderato"
PERFORMER "Prague Chamber Orchestra & Pavel Kuhn"
INDEX 00 32:29:28
INDEX 01 32:31:60
TRACK 06 AUDIO
TITLE "Tomasek - Missa solemnis, Op. 81 - VI. Agnus Dei. Quasi adagio"
PERFORMER "Prague Chamber Orchestra & Pavel Kuhn"
INDEX 00 38:38:21
INDEX 01 38:41:25
TRACK 07 AUDIO
TITLE "Antonin Vranicky - Mass in E flat major - I. Kyrie. Adagio con moto"
PERFORMER "Prague Chamber Orchestra & Pavel Kuhn"
INDEX 00 46:47:59
INDEX 01 46:56:57
TRACK 08 AUDIO
TITLE "Antonin Vranicky - Mass in E flat major - II. Gloria. Allegro con fuoco"
PERFORMER "Prague Chamber Orchestra & Pavel Kuhn"
INDEX 01 51:53:56
TRACK 09 AUDIO
TITLE "Antonin Vranicky - Mass in E flat major - III. Credo. Allegro - Adagio - Allegro"
PERFORMER "Prague Chamber Orchestra & Pavel Kuhn"
INDEX 00 55:43:44
INDEX 01 55:45:15
TRACK 10 AUDIO
TITLE "Antonin Vranicky - Mass in E flat major - IV. Sanctus. Adagio - Allegro vivace"
PERFORMER "Prague Chamber Orchestra & Pavel Kuhn"
INDEX 01 60:35:07
TRACK 11 AUDIO
TITLE "Antonin Vranicky - Mass in E flat major - V. Benedictus. Allegro poco moderato - Allegro vivace"
PERFORMER "Prague Chamber Orchestra & Pavel Kuhn"
INDEX 01 62:09:30
TRACK 12 AUDIO
TITLE "Antonin Vranicky - Mass in E flat major - VI. Agnus Dei. Adagio poco sostenuto - Allegretto non tanto"
PERFORMER "Prague Chamber Orchestra & Pavel Kuhn"
INDEX 01 69:03:65

Вариант индексной карты (.CUE) с исправленными зазорами и более подробным разделением на треки

REM GENRE Classical
REM DISCID A511640C
REM COMMENT "ExactAudioCopy v1.0b3"
PERFORMER "Pavel Kьhn"
TITLE "Tomasek & Vranicky – Masses – Pavel Kuhn"
FILE "Tomasek & Vranicky – Masses – Pavel Kuhn.flac" WAVE
TRACK 01 AUDIO
TITLE "Tomasek - Missa solemnis, Op. 81 - I. Kyrie. Andante"
PERFORMER "Prague Chamber Orchestra & Pavel Kuhn"
INDEX 00 00:00:00
INDEX 01 00:00:32
TRACK 02 AUDIO
TITLE "Tomasek - Missa solemnis, Op. 81 - II. Gloria - Gloria in excelsis. Allegro risoluto -"
PERFORMER "Prague Chamber Orchestra & Pavel Kuhn"
INDEX 00 05:58:61
INDEX 01 06:02:50
TRACK 03 AUDIO
TITLE "Tomasek - Missa solemnis, Op. 81 - II. Gloria - Qui tollis. Andantino -"
PERFORMER "Prague Chamber Orchestra & Pavel Kuhn"
INDEX 01 10:00:02
TRACK 04 AUDIO
TITLE "Tomasek - Missa solemnis, Op. 81 - II. Gloria - Quoniam tu solus. Allegro risoluto -"
PERFORMER "Prague Chamber Orchestra & Pavel Kuhn"
INDEX 01 12:06:62
TRACK 05 AUDIO
TITLE "Tomasek - Missa solemnis, Op. 81 - II. Gloria - Cum sancto spiritu"
PERFORMER "Prague Chamber Orchestra & Pavel Kuhn"
INDEX 01 13:09:33
TRACK 06 AUDIO
TITLE "Tomasek - Missa solemnis, Op. 81 - III. Credo - Credo in unum Deum. Moderato -"
PERFORMER "Prague Chamber Orchestra & Pavel Kuhn"
INDEX 00 15:36:04
INDEX 01 15:39:52
TRACK 07 AUDIO
TITLE "Tomasek - Missa solemnis, Op. 81 - III. Credo - Et incarnatus. Andante -"
PERFORMER "Prague Chamber Orchestra & Pavel Kuhn"
INDEX 01 18:21:68
TRACK 08 AUDIO
TITLE "Tomasek - Missa solemnis, Op. 81 - III. Credo - Et resurrexit. Moderato -"
PERFORMER "Prague Chamber Orchestra & Pavel Kuhn"
INDEX 01 20:25:44
TRACK 09 AUDIO
TITLE "Tomasek - Missa solemnis, Op. 81 - III. Credo - Et vitam venturi"
PERFORMER "Prague Chamber Orchestra & Pavel Kuhn"
INDEX 01 24:23:05
TRACK 10 AUDIO
TITLE "Tomasek - Missa solemnis, Op. 81 - IV. Sanctus. Andante - Allegro moderato"
PERFORMER "Prague Chamber Orchestra & Pavel Kuhn"
INDEX 00 27:27:30
INDEX 01 27:31:57
TRACK 11 AUDIO
TITLE "Tomasek - Missa solemnis, Op. 81 - V. Benedictus. Andante grazioso - Allegro moderato"
PERFORMER "Prague Chamber Orchestra & Pavel Kuhn"
INDEX 00 32:29:28
INDEX 01 32:31:60
TRACK 12 AUDIO
TITLE "Tomasek - Missa solemnis, Op. 81 - VI. Agnus Dei. Quasi adagio"
PERFORMER "Prague Chamber Orchestra & Pavel Kuhn"
INDEX 00 38:38:21
INDEX 01 38:41:25
TRACK 13 AUDIO
TITLE "Antonin Vranicky - Mass in E flat major - I. Kyrie. Adagio con moto"
PERFORMER "Prague Chamber Orchestra & Pavel Kuhn"
INDEX 00 46:47:59
INDEX 01 46:56:57
TRACK 14 AUDIO
TITLE "Antonin Vranicky - Mass in E flat major - II. Gloria. Allegro con fuoco"
PERFORMER "Prague Chamber Orchestra & Pavel Kuhn"
INDEX 01 51:53:56
TRACK 15 AUDIO
TITLE "Antonin Vranicky - Mass in E flat major - III. Credo - Credo in unum Deum. Allegro -"
PERFORMER "Prague Chamber Orchestra & Pavel Kuhn"
INDEX 00 55:43:44
INDEX 01 55:45:15
TRACK 16 AUDIO
TITLE "Antonin Vranicky - Mass in E flat major - III. Credo - Et incarnatus. Adagio -"
PERFORMER "Prague Chamber Orchestra & Pavel Kuhn"
INDEX 01 57:09:60
TRACK 17 AUDIO
TITLE "Antonin Vranicky - Mass in E flat major - III. Credo - Et resurrexit. Allegro"
PERFORMER "Prague Chamber Orchestra & Pavel Kuhn"
INDEX 01 58:49:03
TRACK 18 AUDIO
TITLE "Antonin Vranicky - Mass in E flat major - IV. Sanctus. Adagio - Allegro vivace"
PERFORMER "Prague Chamber Orchestra & Pavel Kuhn"
INDEX 01 60:35:07
TRACK 19 AUDIO
TITLE "Antonin Vranicky - Mass in E flat major - V. Benedictus. Allegro poco moderato - Allegro vivace"
PERFORMER "Prague Chamber Orchestra & Pavel Kuhn"
INDEX 01 62:09:30
TRACK 20 AUDIO
TITLE "Antonin Vranicky - Mass in E flat major - VI. Agnus Dei - Agnus Dei. Adagio poco sostenuto -"
PERFORMER "Prague Chamber Orchestra & Pavel Kuhn"
INDEX 01 69:03:65
TRACK 21 AUDIO
TITLE "Antonin Vranicky - Mass in E flat major - VI. Agnus Dei - Dona nobis. Allegretto non tanto"
PERFORMER "Prague Chamber Orchestra & Pavel Kuhn"
INDEX 01 72:25:06
[teatrix.ru].t21691.torrent 
Торрент: Зарегистрирован [ 2016-03-20 12:54 ] · EB5AB92E20EB6B5CB3B5BFDF0E5143EB0B30C0B8

Скачать .torrent

Скачать

13 KB

Статус: проверено
Скачан: 0 раз
Размер: 312 MB
terms.php



Быстрый ответ

Имя:

      
Для отправки сообщений необходимо включить JavaScript
Показать сообщения:    

Текущее время: 10-Дек 07:59

Часовой пояс: UTC + 3


Вы можете начинать темы
Вы можете отвечать на сообщения
Вы не можете редактировать свои сообщения
Вы не можете удалять свои сообщения
Вы не можете голосовать в опросах
Вы не можете прикреплять файлы к сообщениям
Вы можете скачивать файлы