(Classical) Томашек – Реквием c-moll, op. 70 / Tomasek – Requiem (Magdalena Hajossyova, Marta Benackova, Vladimir Dolezal, Milan Burger; Kuhn Mixed Choir, Prague Philharmonic, Bohumil Kulinsky) - 1997, FLAC (image+.cue) lossless


Статистика раздачи [Обновить пиров]
Размер:  192 MB   |    Зарегистрирован:  8 месяцев 15 дней   |    Скачан:  0 раз

Полного источника не было: Никогда

 
   
 
 
 

[Цитировать]

Томашек – Реквием c-moll, op. 70 / Tomášek – Requiem (Kühn Mixed Choir, Prague Philharmonic, Bohumil Kulínský)
Жанр: Classical
Страна-производитель диска: Чехия
Год издания диска: 1997
Издатель (лейбл): Multisonic
Номер по каталогу: 31 0395-2 231
Дата записи: 25 июня 1997 г., Прага.
Аудиокодек: FLAC
Тип рипа: image+.cue
Битрейт аудио: lossless
Продолжительность: 00:43:45
Источник: odeonmusic
Наличие сканов в содержимом раздачи: да
Треклист:-Вацлав Ян Крштитель Томашек (1774 — 1850).-Реквием c-moll для солистов (SATB), хора (SATB) и оркестра, op. 70 (1820).
I. Introitus et Kyrie.
01. Requiem aeternam [05:29].
II. Sequentia.
02. Dies irae. — [04:28].
03. Recordare. — [04:22].
04. Lacrimosa [03:40].
III. Offertorium.
05. Domine Jesu Christe. — [04:00].
06. Hostias et preces. — [01:58]
07. Quam olim Abrahae [01:57].
IV. Sanctus.
08. Sanctus [03:33].
V. Benedictus.
09. Benedictus. —
(10.) Hosanna in excelsis [09:22].
VI. Agnus Dei.
10. Agnus Dei [04:34].-Исполнители:
Magdaléna Hajóssyová (сопрано),
Marta Beňačková (контральто),
Vladimír Doležal (тенор),
Milan Bürger (бас).
Kühn Mixed Choir.
Prague Philharmonic.
Дирижер Bohumil Kulínský.-

Лог создания рипа

Exact Audio Copy V1.0 beta 3 from 29. August 2011
EAC extraction logfile from 17. December 2013, 9:45
Bohumil Kulinsky / Tomasek - Requiem in C minor - Bohumil Kulinsky
Used drive : TSSTcorpCDDVDW SH-222BB Adapter: 2 ID: 1
Read mode : Secure
Utilize accurate stream : Yes
Defeat audio cache : Yes
Make use of C2 pointers : No
Read offset correction : 6
Overread into Lead-In and Lead-Out : No
Fill up missing offset samples with silence : Yes
Delete leading and trailing silent blocks : No
Null samples used in CRC calculations : Yes
Used interface : Native Win32 interface for Win NT & 2000
Used output format : User Defined Encoder
Selected bitrate : 1024 kBit/s
Quality : High
Add ID3 tag : No
Command line compressor : C:\Program Files\Exact Audio Copy\Flac\flac.exe
Additional command line options : -8 -V -T "TITLE=%title%" -T "ARTIST=%artist%" -T "ALBUMARTIST=%albumartist%" -T "ALBUM=%albumtitle%" -T "DATE=%year%" -T "TRACKNUMBER=%tracknr%" -T "TRACKTOTAL=%numtracks%" -T "GENRE=%genre%" -T "COMMENT=%comment%" -T "PERFORMER=%albuminterpret%" -T "COMPOSER=%composer%" %source% -o %dest%
TOC of the extracted CD
Track | Start | Length | Start sector | End sector
---------------------------------------------------------
1 | 0:00.32 | 5:34.18 | 32 | 25099
2 | 5:34.50 | 4:28.37 | 25100 | 45236
3 | 10:03.12 | 4:21.65 | 45237 | 64876
4 | 14:25.02 | 3:42.73 | 64877 | 81599
5 | 18:08.00 | 4:01.32 | 81600 | 99706
6 | 22:09.32 | 1:58.45 | 99707 | 108601
7 | 24:08.02 | 2:01.38 | 108602 | 117714
8 | 26:09.40 | 3:35.32 | 117715 | 133871
9 | 29:44.72 | 9:26.55 | 133872 | 176376
10 | 39:11.52 | 4:34.55 | 176377 | 196981
Range status and errors
Selected range
Filename G:\Ripped general\[8273] Tomášek – Requiem in C minor – Bohumil Kulinsky\Tomasek - Requiem in C minor - Bohumil Kulinsky.wav
Peak level 83.7 %
Extraction speed 2.1 X
Range quality 99.9 %
Test CRC D6194918
Copy CRC D6194918
Copy OK
No errors occurred
AccurateRip summary
Track 1 cannot be verified as accurate (confidence 1) [47994A48], AccurateRip returned [4086B808] (AR v2)
Track 2 cannot be verified as accurate (confidence 1) [9AC88509], AccurateRip returned [1F25DD31] (AR v2)
Track 3 cannot be verified as accurate (confidence 1) [817D0C51], AccurateRip returned [29C90328] (AR v2)
Track 4 cannot be verified as accurate (confidence 1) [6880D201], AccurateRip returned [7CEBEFF5] (AR v2)
Track 5 cannot be verified as accurate (confidence 1) [0636D512], AccurateRip returned [F2DE0D4D] (AR v2)
Track 6 cannot be verified as accurate (confidence 1) [7A6AAC15], AccurateRip returned [79DBEC0B] (AR v2)
Track 7 cannot be verified as accurate (confidence 1) [C3D02493], AccurateRip returned [9A4EC406] (AR v2)
Track 8 cannot be verified as accurate (confidence 1) [46089B16], AccurateRip returned [80A84132] (AR v2)
Track 9 cannot be verified as accurate (confidence 1) [B5EBC20A], AccurateRip returned [7213CD08] (AR v2)
Track 10 cannot be verified as accurate (confidence 1) [5427FD47], AccurateRip returned [63945DBE] (AR v2)
No tracks could be verified as accurate
You may have a different pressing from the one(s) in the database
End of status report

Содержание индексной карты (.CUE)

REM GENRE Classical
REM DATE 1997
REM DISCID 7B0A420A
REM COMMENT "ExactAudioCopy v1.0b3"
PERFORMER "Bohumil Kulinsky"
TITLE "Tomasek – Requiem in C minor – Bohumil Kulinsky"
FILE "Tomasek – Requiem in C minor – Bohumil Kulinsky.flac" WAVE
TRACK 01 AUDIO
TITLE "Requiem in C minor, Op. 70 - I. Requiem aeternam"
PERFORMER "Prague Philharmonic Orchestra & Bohumil Kulinsky"
INDEX 00 00:00:00
INDEX 01 00:00:32
TRACK 02 AUDIO
TITLE "Requiem in C minor, Op. 70 - II. Dies irae - Dies irae -"
PERFORMER "Prague Philharmonic Orchestra & Bohumil Kulinsky"
INDEX 00 05:29:67
INDEX 01 05:34:50
TRACK 03 AUDIO
TITLE "Requiem in C minor, Op. 70 - II. Dies irae - Recordare -"
PERFORMER "Prague Philharmonic Orchestra & Bohumil Kulinsky"
INDEX 01 10:03:12
TRACK 04 AUDIO
TITLE "Requiem in C minor, Op. 70 - II. Dies irae - Lacrimosa"
PERFORMER "Prague Philharmonic Orchestra & Bohumil Kulinsky"
INDEX 01 14:25:02
TRACK 05 AUDIO
TITLE "Requiem in C minor, Op. 70 - III. Offertorium - Domine Jesu Christe -"
PERFORMER "Prague Philharmonic Orchestra & Bohumil Kulinsky"
INDEX 00 18:05:70
INDEX 01 18:08:00
TRACK 06 AUDIO
TITLE "Requiem in C minor, Op. 70 - III. Offertorium - Hostias"
PERFORMER "Prague Philharmonic Orchestra & Bohumil Kulinsky"
INDEX 00 22:08:10
INDEX 01 22:09:32
TRACK 07 AUDIO
TITLE "Requiem in C minor, Op. 70 - III. Offertorium - Quam olim Abrahae"
PERFORMER "Prague Philharmonic Orchestra & Bohumil Kulinsky"
INDEX 01 24:08:02
TRACK 08 AUDIO
TITLE "Requiem in C minor, Op. 70 - IV. Sanctus"
PERFORMER "Prague Philharmonic Orchestra & Bohumil Kulinsky"
INDEX 00 26:05:50
INDEX 01 26:09:40
TRACK 09 AUDIO
TITLE "Requiem in C minor, Op. 70 - V. Benedictus"
PERFORMER "Prague Philharmonic Orchestra & Bohumil Kulinsky"
INDEX 00 29:43:20
INDEX 01 29:44:72
TRACK 10 AUDIO
TITLE "Requiem in C minor, Op. 70 - VI. Agnus Dei"
PERFORMER "Prague Philharmonic Orchestra & Bohumil Kulinsky"
INDEX 00 39:07:45
INDEX 01 39:11:52

Вариант индексной карты (.CUE) с исправленными зазорами

REM GENRE Classical
REM DATE 1997
REM DISCID 7B0A420A
REM COMMENT "ExactAudioCopy v1.0b3"
PERFORMER "Bohumil Kulinsky"
TITLE "Tomasek – Requiem in C minor – Bohumil Kulinsky"
FILE "Tomasek – Requiem in C minor – Bohumil Kulinsky.flac" WAVE
TRACK 01 AUDIO
TITLE "Requiem in C minor, Op. 70 - I. Requiem aeternam"
PERFORMER "Prague Philharmonic Orchestra & Bohumil Kulinsky"
INDEX 00 00:00:00
INDEX 01 00:00:63
TRACK 02 AUDIO
TITLE "Requiem in C minor, Op. 70 - II. Dies irae - Dies irae -"
PERFORMER "Prague Philharmonic Orchestra & Bohumil Kulinsky"
INDEX 00 05:32:51
INDEX 01 05:34:50
TRACK 03 AUDIO
TITLE "Requiem in C minor, Op. 70 - II. Dies irae - Recordare -"
PERFORMER "Prague Philharmonic Orchestra & Bohumil Kulinsky"
INDEX 01 10:03:12
TRACK 04 AUDIO
TITLE "Requiem in C minor, Op. 70 - II. Dies irae - Lacrimosa"
PERFORMER "Prague Philharmonic Orchestra & Bohumil Kulinsky"
INDEX 01 14:25:02
TRACK 05 AUDIO
TITLE "Requiem in C minor, Op. 70 - III. Offertorium - Domine Jesu Christe -"
PERFORMER "Prague Philharmonic Orchestra & Bohumil Kulinsky"
INDEX 01 18:08:00
TRACK 06 AUDIO
TITLE "Requiem in C minor, Op. 70 - III. Offertorium - Hostias"
PERFORMER "Prague Philharmonic Orchestra & Bohumil Kulinsky"
INDEX 01 22:09:32
TRACK 07 AUDIO
TITLE "Requiem in C minor, Op. 70 - III. Offertorium - Quam olim Abrahae"
PERFORMER "Prague Philharmonic Orchestra & Bohumil Kulinsky"
INDEX 01 24:08:02
TRACK 08 AUDIO
TITLE "Requiem in C minor, Op. 70 - IV. Sanctus"
PERFORMER "Prague Philharmonic Orchestra & Bohumil Kulinsky"
INDEX 00 26:08:01
INDEX 01 26:09:40
TRACK 09 AUDIO
TITLE "Requiem in C minor, Op. 70 - V. Benedictus"
PERFORMER "Prague Philharmonic Orchestra & Bohumil Kulinsky"
INDEX 01 29:44:72
TRACK 10 AUDIO
TITLE "Requiem in C minor, Op. 70 - VI. Agnus Dei"
PERFORMER "Prague Philharmonic Orchestra & Bohumil Kulinsky"
INDEX 00 39:08:71
INDEX 01 39:11:52

Вариант индексной карты (.CUE) с исправленными зазорами и разделением Benedictus на два трека

REM GENRE Classical
REM DATE 1997
REM DISCID 7B0A420A
REM COMMENT "ExactAudioCopy v1.0b3"
PERFORMER "Bohumil Kulinsky"
TITLE "Tomasek – Requiem in C minor – Bohumil Kulinsky"
FILE "Tomasek – Requiem in C minor – Bohumil Kulinsky.flac" WAVE
TRACK 01 AUDIO
TITLE "Requiem in C minor, Op. 70 - I. Requiem aeternam"
PERFORMER "Prague Philharmonic Orchestra & Bohumil Kulinsky"
INDEX 00 00:00:00
INDEX 01 00:00:63
TRACK 02 AUDIO
TITLE "Requiem in C minor, Op. 70 - II. Dies irae - Dies irae -"
PERFORMER "Prague Philharmonic Orchestra & Bohumil Kulinsky"
INDEX 00 05:32:51
INDEX 01 05:34:50
TRACK 03 AUDIO
TITLE "Requiem in C minor, Op. 70 - II. Dies irae - Recordare -"
PERFORMER "Prague Philharmonic Orchestra & Bohumil Kulinsky"
INDEX 01 10:03:12
TRACK 04 AUDIO
TITLE "Requiem in C minor, Op. 70 - II. Dies irae - Lacrimosa"
PERFORMER "Prague Philharmonic Orchestra & Bohumil Kulinsky"
INDEX 01 14:25:02
TRACK 05 AUDIO
TITLE "Requiem in C minor, Op. 70 - III. Offertorium - Domine Jesu Christe -"
PERFORMER "Prague Philharmonic Orchestra & Bohumil Kulinsky"
INDEX 01 18:08:00
TRACK 06 AUDIO
TITLE "Requiem in C minor, Op. 70 - III. Offertorium - Hostias"
PERFORMER "Prague Philharmonic Orchestra & Bohumil Kulinsky"
INDEX 01 22:09:32
TRACK 07 AUDIO
TITLE "Requiem in C minor, Op. 70 - III. Offertorium - Quam olim Abrahae"
PERFORMER "Prague Philharmonic Orchestra & Bohumil Kulinsky"
INDEX 01 24:08:02
TRACK 08 AUDIO
TITLE "Requiem in C minor, Op. 70 - IV. Sanctus"
PERFORMER "Prague Philharmonic Orchestra & Bohumil Kulinsky"
INDEX 00 26:08:01
INDEX 01 26:09:40
TRACK 09 AUDIO
TITLE "Requiem in C minor, Op. 70 - V. Benedictus - Benedictus -"
PERFORMER "Prague Philharmonic Orchestra & Bohumil Kulinsky"
INDEX 01 29:44:72
TRACK 10 AUDIO
TITLE "Requiem in C minor, Op. 70 - V. Benedictus - Hosanna"
PERFORMER "Prague Philharmonic Orchestra & Bohumil Kulinsky"
INDEX 01 37:54:19
TRACK 11 AUDIO
TITLE "Requiem in C minor, Op. 70 - VI. Agnus Dei"
PERFORMER "Prague Philharmonic Orchestra & Bohumil Kulinsky"
INDEX 00 39:08:71
INDEX 01 39:11:52
[teatrix.ru].t21693.torrent 
Торрент: Зарегистрирован [ 2016-03-20 12:54 ] · A2CBD7B635E21E35228CDC36DD92FF70CE08E867

Скачать .torrent

Скачать

16 KB

Статус: проверено
Скачан: 0 раз
Размер: 192 MB
terms.php



Быстрый ответ

Имя:

      
Для отправки сообщений необходимо включить JavaScript
Показать сообщения:    

Текущее время: 05-Дек 07:31

Часовой пояс: UTC + 3


Вы можете начинать темы
Вы можете отвечать на сообщения
Вы не можете редактировать свои сообщения
Вы не можете удалять свои сообщения
Вы не можете голосовать в опросах
Вы не можете прикреплять файлы к сообщениям
Вы можете скачивать файлы