(Classical) Воржишек – Скрипичная соната и другие камерные сочинения / Vorisek – Chamber music: Violin sonata etc. (Ivan Klansky; Kocian Quartet: Pavel Hula, Milos Cerny, Zbynek Padourek, Vaclav Bernasek) - 2004, FLAC (image+.cue) lossless


 

[Цитировать]

Воржишек – Скрипичная соната и другие камерные сочинения / Voříšek – Chamber music: Violin sonata, rondos, variations (Ivan Klánský, Kocian Quartet)
Жанр: Classical
Страна-производитель диска: Германия
Год издания диска: 2004
Издатель (лейбл): Praga Digitals
Номер по каталогу: PRD/DSD 250 204
Дата записи: 14 — 16 декабря 2003 г., Прага.
Аудиокодек: FLAC
Тип рипа: image+.cue
Битрейт аудио: lossless
Продолжительность: 01:00:21
Источник: odeonmusic
Наличие сканов в содержимом раздачи: да
Треклист:-Ян Вацлав Гуго Воржишек (1791 — 1825).-Соната G-dur для фортепиано со скрипкой, op. 5 (1819, опубл. 1820).
01. I. Introduzione. Largo. — Allegro moderato [11:55].
02. II. Scherzo. Allegro molto [06:17].
03. III. Andante sostenuto. — [02:57].
04. IV. Finale. Allegro molto [06:38].
05. Рондо A-dur для фортепиано со скрипкой, op. 8 (ок. 1819, опубл. 1821) [09:46].
Вариации d-moll для фортепиано с виолончелью, op. 9 (ок. 1820, опубл. 1822).
06. [Вступление.] —
(07.) — [Тема.] —
(08.) — [Вариация I.] —
(09.) — [Вариация II.] —
(10.) — [Вариация III.] —
(11.) — [Вариация IV. Maggiore.] —
(12.) — [Вариация V. Minore.] —
(13.) — [Вариация VI.] —
(14.) — [Кода] [14:47].
Рондо A-dur для струнного квартета, op. 11 (1822/1823?) [07:25].-Исполнители:
Ivan Klánský (фортепиано).
Kocian Quartet:
Pavel Hůla (скрипка, 1 — 5, 7),
Miloš Černý (скрипка, 7),
Zbyněk Paďourek (альт),
Václav Bernášek (виолончель).-

Лог создания рипа

Exact Audio Copy V1.0 beta 3 from 29. August 2011
EAC extraction logfile from 17. March 2013, 9:28
Kocian Quartet / Vorisek - Chamber Music - Ivan Klánký, Kocian Quartet
Used drive : TSSTcorpCDDVDW SH-222BB Adapter: 2 ID: 1
Read mode : Secure
Utilize accurate stream : Yes
Defeat audio cache : Yes
Make use of C2 pointers : No
Read offset correction : 6
Overread into Lead-In and Lead-Out : No
Fill up missing offset samples with silence : Yes
Delete leading and trailing silent blocks : No
Null samples used in CRC calculations : Yes
Used interface : Native Win32 interface for Win NT & 2000
Used output format : User Defined Encoder
Selected bitrate : 1024 kBit/s
Quality : High
Add ID3 tag : No
Command line compressor : C:\Program Files\Exact Audio Copy\Flac\flac.exe
Additional command line options : -8 -V -T "TITLE=%title%" -T "ARTIST=%artist%" -T "ALBUMARTIST=%albumartist%" -T "ALBUM=%albumtitle%" -T "DATE=%year%" -T "TRACKNUMBER=%tracknr%" -T "TRACKTOTAL=%numtracks%" -T "GENRE=%genre%" -T "COMMENT=%comment%" -T "PERFORMER=%albuminterpret%" -T "COMPOSER=%composer%" %source% -o %dest%
TOC of the extracted CD
Track | Start | Length | Start sector | End sector
---------------------------------------------------------
1 | 0:00.00 | 11:58.48 | 0 | 53897
2 | 11:58.48 | 6:20.02 | 53898 | 82399
3 | 18:18.50 | 2:57.61 | 82400 | 95735
4 | 21:16.36 | 6:47.34 | 95736 | 126294
5 | 28:03.70 | 9:54.57 | 126295 | 170901
6 | 37:58.52 | 14:56.12 | 170902 | 238113
7 | 52:54.64 | 7:25.05 | 238114 | 271493
Range status and errors
Selected range
Filename G:\Ripped general\[9066] Vorisek – Chamber Music – Ivan Klánký, Kocian Quartet\Vorisek - Chamber Music - Ivan Klánký, Kocian Quartet.wav
Peak level 90.2 %
Extraction speed 7.6 X
Range quality 100.0 %
Test CRC 4B022F6B
Copy CRC 4B022F6B
Copy OK
No errors occurred
AccurateRip summary
Track 1 accurately ripped (confidence 1) [20383478] (AR v1)
Track 2 accurately ripped (confidence 1) [BECC79B0] (AR v1)
Track 3 accurately ripped (confidence 1) [26D7F12B] (AR v1)
Track 4 accurately ripped (confidence 1) [E28801E6] (AR v1)
Track 5 accurately ripped (confidence 1) [E698444F] (AR v1)
Track 6 accurately ripped (confidence 1) [89C72526] (AR v1)
Track 7 accurately ripped (confidence 1) [AB779FB5] (AR v1)
All tracks accurately ripped
End of status report

Содержание индексной карты (.CUE)

REM GENRE Classical
REM DISCID 500E2307
REM COMMENT "ExactAudioCopy v1.0b3"
PERFORMER "Kocian Quartet"
TITLE "Vorisek – Chamber music – Ivan Klansky & Kocian Quartet"
FILE "Vorisek – Chamber music – Ivan Klansky & Kocian Quartet.flac" WAVE
TRACK 01 AUDIO
TITLE "Violin sonata in G major, Op. 5 - I. Introduzione. Largo - Allegro moderato"
PERFORMER "Kocian Quartet"
INDEX 01 00:00:00
TRACK 02 AUDIO
TITLE "Violin sonata in G major, Op. 5 - II. Scherzo. Allegro molto"
PERFORMER "Kocian Quartet"
INDEX 00 11:54:60
INDEX 01 11:58:48
TRACK 03 AUDIO
TITLE "Violin sonata in G major, Op. 5 - III. Andante sostenuto"
PERFORMER "Kocian Quartet"
INDEX 00 18:15:63
INDEX 01 18:18:50
TRACK 04 AUDIO
TITLE "Violin sonata in G major, Op. 5 - IV. Finale. Allegro molto"
PERFORMER "Kocian Quartet"
INDEX 00 21:15:38
INDEX 01 21:16:36
TRACK 05 AUDIO
TITLE "Rondo in A major for violin & piano, Op. 8"
PERFORMER "Kocian Quartet"
INDEX 00 27:54:48
INDEX 01 28:03:70
TRACK 06 AUDIO
TITLE "Variations in D minor for cello & piano, Op. 9"
PERFORMER "Kocian Quartet"
INDEX 00 37:50:32
INDEX 01 37:58:52
TRACK 07 AUDIO
TITLE "Rondo in A major for string quartet, Op. 11"
PERFORMER "Kocian Quartet"
INDEX 00 52:46:11
INDEX 01 52:54:64

Вариант индексной карты (.CUE) с исправленными зазорами

REM GENRE Classical
REM DISCID 500E2307
REM COMMENT "ExactAudioCopy v1.0b3"
PERFORMER "Kocian Quartet"
TITLE "Vorisek – Chamber music – Ivan Klansky & Kocian Quartet"
FILE "Vorisek – Chamber music – Ivan Klansky & Kocian Quartet.flac" WAVE
TRACK 01 AUDIO
TITLE "Violin sonata in G major, Op. 5 - I. Introduzione. Largo - Allegro moderato"
PERFORMER "Kocian Quartet"
INDEX 00 00:00:00
INDEX 01 00:00:39
TRACK 02 AUDIO
TITLE "Violin sonata in G major, Op. 5 - II. Scherzo. Allegro molto"
PERFORMER "Kocian Quartet"
INDEX 00 11:57:05
INDEX 01 11:58:48
TRACK 03 AUDIO
TITLE "Violin sonata in G major, Op. 5 - III. Andante sostenuto"
PERFORMER "Kocian Quartet"
INDEX 01 18:18:50
TRACK 04 AUDIO
TITLE "Violin sonata in G major, Op. 5 - IV. Finale. Allegro molto"
PERFORMER "Kocian Quartet"
INDEX 01 21:16:36
TRACK 05 AUDIO
TITLE "Rondo in A major for violin & piano, Op. 8"
PERFORMER "Kocian Quartet"
INDEX 00 27:54:48
INDEX 01 28:03:70
TRACK 06 AUDIO
TITLE "Variations in D minor for cello & piano, Op. 9"
PERFORMER "Kocian Quartet"
INDEX 00 37:51:21
INDEX 01 37:58:52
TRACK 07 AUDIO
TITLE "Rondo in A major for string quartet, Op. 11"
PERFORMER "Kocian Quartet"
INDEX 00 52:47:03
INDEX 01 52:54:64
INDEX 02 60:18:51

Вариант индексной карты (.CUE) с исправленными зазорами и разделением Вариаций на отдельные треки

REM GENRE Classical
REM DISCID 500E2307
REM COMMENT "ExactAudioCopy v1.0b3"
PERFORMER "Kocian Quartet"
TITLE "Vorisek – Chamber music – Ivan Klansky & Kocian Quartet"
FILE "Vorisek – Chamber music – Ivan Klansky & Kocian Quartet.flac" WAVE
TRACK 01 AUDIO
TITLE "Violin sonata in G major, Op. 5 - I. Introduzione. Largo - Allegro moderato"
PERFORMER "Kocian Quartet"
INDEX 00 00:00:00
INDEX 01 00:00:39
TRACK 02 AUDIO
TITLE "Violin sonata in G major, Op. 5 - II. Scherzo. Allegro molto"
PERFORMER "Kocian Quartet"
INDEX 00 11:57:05
INDEX 01 11:58:48
TRACK 03 AUDIO
TITLE "Violin sonata in G major, Op. 5 - III. Andante sostenuto"
PERFORMER "Kocian Quartet"
INDEX 01 18:18:50
TRACK 04 AUDIO
TITLE "Violin sonata in G major, Op. 5 - IV. Finale. Allegro molto"
PERFORMER "Kocian Quartet"
INDEX 01 21:16:36
TRACK 05 AUDIO
TITLE "Rondo in A major for violin & piano, Op. 8"
PERFORMER "Kocian Quartet"
INDEX 00 27:54:48
INDEX 01 28:03:70
TRACK 06 AUDIO
TITLE "Variations in D minor for cello & piano, Op. 9 - Introduzione -"
PERFORMER "Kocian Quartet"
INDEX 00 37:51:21
INDEX 01 37:58:52
TRACK 07 AUDIO
TITLE "Variations in D minor for cello & piano, Op. 9 - Tema -"
PERFORMER "Kocian Quartet"
INDEX 01 41:45:02
TRACK 08 AUDIO
TITLE "Variations in D minor for cello & piano, Op. 9 - Variazione I -"
PERFORMER "Kocian Quartet"
INDEX 01 42:26:72
TRACK 09 AUDIO
TITLE "Variations in D minor for cello & piano, Op. 9 - Variazione II -"
PERFORMER "Kocian Quartet"
INDEX 01 43:10:46
TRACK 10 AUDIO
TITLE "Variations in D minor for cello & piano, Op. 9 - Variazione III -"
PERFORMER "Kocian Quartet"
INDEX 01 43:53:51
TRACK 11 AUDIO
TITLE "Variations in D minor for cello & piano, Op. 9 - Variazione IV. Maggiore -"
PERFORMER "Kocian Quartet"
INDEX 01 44:42:36
TRACK 12 AUDIO
TITLE "Variations in D minor for cello & piano, Op. 9 - Variazione V. Minore -"
PERFORMER "Kocian Quartet"
INDEX 01 46:47:41
TRACK 13 AUDIO
TITLE "Variations in D minor for cello & piano, Op. 9 - Variazione VI -"
PERFORMER "Kocian Quartet"
INDEX 01 48:21:00
TRACK 14 AUDIO
TITLE "Variations in D minor for cello & piano, Op. 9 - Coda"
PERFORMER "Kocian Quartet"
INDEX 01 49:45:63
TRACK 15 AUDIO
TITLE "Rondo in A major for string quartet, Op. 11"
PERFORMER "Kocian Quartet"
INDEX 00 52:47:03
INDEX 01 52:54:64
INDEX 02 60:18:51



Показать сообщения:    

Текущее время: 08-Дек 09:06

Часовой пояс: UTC + 3


Вы не можете начинать темы
Вы не можете отвечать на сообщения
Вы не можете редактировать свои сообщения
Вы не можете удалять свои сообщения
Вы не можете голосовать в опросах
Вы не можете прикреплять файлы к сообщениям
Вы не можете скачивать файлы